Morricone Conducts Morricone (2004) Digitally Restored 2020《BDMV 22.5G》

01. Opening
02. The Untouchables (1986 – Directed by Brian De Palma)
03. Once Upon a Time in America (1984 – Directed by Sergio Leone) Deborah’s Theme – Poverty – Main Theme
04. The Legend of 1900 (1998 – Directed by Giuseppe Tornatore)
05. Cinema Paradiso (1989 – Directed by Giuseppe Tornatore)
06. H2S (1968 – Directed by Roberto Faenza)
07. The Sicilian Clan (1969 – Directed by Henri Verneuil)
08. Love Circle (1969 – Directed by Giuseppe Patroni Griffi)
09. Love Circle (1969 – Directed by Giuseppe Patroni Griffi) Uno che grida amore
10. Maddalena (1971 – Directed by Jerzy Kawalerovicz) Come Maddalena
11. Once Upon a Time in America (1984 – Directed by Sergio Leone) Cockey’s Song
12. The Good, the Bad and the Ugly (1966 – Directed by Sergio Leone)
13. Once Upon a Time in the West (1968 – Directed by Sergio Leone)
14. A Fistful of Dynamite (1971 – Directed by Sergio Leone)
15. The Good, the Bad and the Ugly (1984 – Directed by Sergio Leone) Ecstasy of Gold
16. Canone Inverso – Making Love (1999 – Directed by Ricky Tognazzi)
17. Investigation of a Citizen Above Suspicion (1969 – Directed by Elio Petri)
18. According to Pereira (1995 – Directed by Roberto Faenza)
19. The Working Class Goes to Heaven (1971 – Directed by Elio Petri)
20. Casualties of War (1989 – Directed by Brian De Palma)
21. The Desert of the Tartars (1976 – Directed by Valerio Zurlini)
22. The Mission (1986 – Directed by Roland Joffe)
23. Credits

DISC INFO:
Disc Title:     MORRICONE
Disc Label:     Morricone Conducts Morricone 2004 1080i Blu-ray AVC LPCM 2.0
Disc Size:      24,213,380,146 bytes
Protection:     AACS
BDInfo:         0.7.5.5
PLAYLIST REPORT:
Name:                   00000.MPLS
Length:                 1:39:38.305 (h:m:s.ms)
Size:                   23,676,470,976 bytes
Total Bitrate:          31.68 Mbps
VIDEO:
Codec                   Bitrate             Description
—–                   ——-             ———–
MPEG-4 AVC Video        27935 kbps          1080i / 29.970 fps / 16:9 / High Profile 4.1
AUDIO:
Codec                           Language        Bitrate         Description
—–                           ——–        ——-         ———–
LPCM Audio                      Undetermined    2304 kbps       2.0 / 48 kHz /  2304 kbps / 24-bit
FILES:
Name            Time In         Length          Size            Total Bitrate
—-            ——-         ——          —-            ————-
00000.M2TS      0:00:00.000     1:39:29.930     23,674,363,584  31,725
00008.M2TS      1:39:29.930     0:00:08.041     2,095,104       2,084
00007.M2TS      1:39:37.971     0:00:00.333     12,288          295

资源下载
免费资源
文件1地址点击下载
付费资源
此资源下载价格为25金币,请先
所有资源在百度网盘,如有链接失效、解压码错误等、请联系微信:aimuvv
免费资源
文件1地址点击下载
资源下载
下载价格:25 金币
所有资源在百度网盘,如有链接失效、解压码错误等、请联系微信:aimuvv
0

评论84

请先

  1. 安静的聆听外国的音乐
    北城以念2周前
  2. 精彩的演绎,真棒
    南陵笑笑1102周前
  3. 坚持日常打开
    一路向北2周前
  4. 叮,打卡!
    失落感2周前
  5. 非常感谢楼主分享!
    北城以念2周前
  6. 好听的音乐,谢谢
    南陵笑笑1102周前
  7. 多謝分享!
    coco8752周前
  8. 谢谢,好资源
    南陵笑笑1102周前
  9. 聆聽外國的音樂
    Raidas2周前
  10. 感谢
    音乐发烧友2周前
  11. 辛苦了,感谢分享!
    gamez2周前
  12. 謝謝分享
    gccw2周前
  13. 又来很多好资源
    林子的晟利2周前
  14. 非常感谢分享好资源
    蓝光演唱会2周前
  15. 古典音乐很好
    高清一族2周前
  16. 谢谢楼主的分享
    蓝光粉粉2周前
  17. 非常喜欢的古典音乐
    旧梦换新颜2周前
  18. 非常感谢,非常喜欢
    恭贺新禧2周前
  19. 感谢分享。
    噢买噶の2周前
  20. 天天来看看
    流星y2周前
  21. 好听的音乐,谢谢
    林子的晟利2周前
  22. 感谢了
    love2周前
  23. 感谢楼主的精彩分享,非常棒的
    子弹2周前
  24. 真棒
    mcm2周前
  25. 优美的音乐,谢谢
    夜归狼II2周前
  26. 精彩的音乐会,谢谢
    高清一族2周前
  27. 感谢楼主分享
    蓝光粉粉2周前
  28. 谢谢楼主,谢谢
    天长地久2周前
  29. 古典音乐让人沉醉
    快速下载2周前
  30. 谢谢楼主无私分享!
    恭贺新禧2周前
  31. 好多资源,给力
    一路向北2周前
  32. 非常好听的音乐
    蓝光粉粉2周前
  33. 非常喜欢,谢谢了
    1080-4K2周前
  34. 好资源,谢谢了
    LLPLLP14142周前
  35. 非常多的好资源呀
    旧梦换新颜2周前
  36. 感谢分享
    love2周前
  37. 多謝分享
    pcturbo2周前
  38. 感谢分享。
    等待一个人2周前
  39. 谢谢楼主分享
    mayvin3162周前
  40. 感谢分享
    piratepro2周前
  41. 謝謝樓主分享
    falconstar2周前
  42. 謝謝樓主
    musicfx2周前
  43. 谢谢楼主分享
    蓝光演唱会2周前
  44. 古典音乐让人沉醉
    夜归狼II2周前
  45. 古典音乐非常好
    快速下载2周前
  46. 感谢分享。
    流星y2周前
  47. 日常打开
    mcm2周前
  48. 感谢站长,资源很多
    噢买噶の2周前
  49. 多谢分享,非常棒的资源
    音乐发烧友2周前
  50. 激动的心
  51. 谢谢分享精彩音乐
    高清一族2周前
  52. 多谢分享
    如w意外2周前
  53. 好资源!
    好言2周前
  54. 非常喜欢古典音乐
    恭贺新禧2周前
  55. 谢谢分享
    一路向北1周前
  56. 謝謝分享
    silvgun1周前
  57. 謝謝分享好資源!
    pcturbo1周前
  58. 谢谢分享好资源!
    152964404171周前
  59. 感謝分享
    systemoverkill1周前
  60. 好资源,常更新,真棒!
    失落感1周前
  61. 优美的音乐,谢谢!
    夜归狼II1周前
  62. 感谢热心分享
    嘉缘智能1周前
  63. 感谢分享。感谢分享。
    好有缘1周前
  64. 谢谢楼主分享
    旧梦换新颜1周前
  65. 辛苦了樓主!
    silvgun1周前
  66. 喜歡的古典音樂
    Raidas1周前
  67. 高質素的演奏會
    smcck1周前
  68. 感谢分享。
    音乐发烧友1周前
  69. 多謝分享
    systemoverkill1周前
  70. 谢谢,楼主辛苦了
    旧梦换新颜1周前
  71. 感谢站长,非常好
    嘉缘智能1周前
  72. 多谢分享
    unn1周前
  73. 非常感謝分享!
    shandi12107天前
  74. 聽出耳油,支持!
    smcck6天前
  75. 感谢楼主分享
    如w意外6天前
  76. 辛苦了,感谢分享!
    音乐发烧友6天前
  77. 多谢分享
    好有缘5天前
  78. 非常感谢分享好资源
    恭贺新禧5天前
  79. 辛苦了,感谢分享
    好有缘4天前
  80. 非常精彩和出色的音質
    smcck3天前
  81. 多谢分享!
    safariboi3天前
  82. 支持一波!
    一路向北2天前
  83. 緬懷一代大師
    pk25boy2天前
  84. 静的聆听外国的音乐
    Raidas1天前

网站已有的的蓝光原盘资源,可以继续投BDRIP、REMUX、WEB-DL类型的演唱会资源,投稿有奖励,欢迎跃投稿!详情查看:https://www.lgych.com/blog/tougao

没有账号? 注册  忘记密码?
'); })();