宇宙少女 线上演唱会 WSJN ONLINE LIVE AS WE WISH AS YOU WISH 1080p 30fps 48kHz KAVECON《WEB-DL MP4 15.08G》

简介:

宇宙少女将于2020年10月24日晚8时举行线上LIVE“AS WE WISH”,此次线上LIVE是将宇宙少女去年发行的专辑《As You Wish》变形后的名字,通过主打歌《As You Wish》传递出实现自己想要的一切信息的宇宙少女,在这次线上LIVE中也将向粉丝们传达明亮的能量和希望,因此更增添了意义。此次公演能够感受到宇宙少女从未公开过的全新舞台和成员们魅力的丰盛舞台,因此备受期待。
来源:

自KAVECON网站下载的付费视频。

下载下来是as we wish ,但是网上的名字又叫as you wish,具体傻傻分不清楚。

有CN EN JP 三个版本

General
Complete name : I:\WSJN ONLINE LIVE AS WE WISH\WJSN ONLINE VOD AS WE WISH CN.mp4
Format : MPEG-4
Format profile : Base Media
Codec ID : isom (isom/iso2/avc1/mp41)
File size : 5.22 GiB
Duration : 1 h 47 min
Overall bit rate mode : Variable
Overall bit rate : 6 976 kb/s
Writing application : Lavf56.36.100

Video
ID : 1
Format : AVC
Format/Info : Advanced Video Codec
Format profile : High@L4.1
Format settings : CABAC / 4 Ref Frames
Format settings, CABAC : Yes
Format settings, Reference fra : 4 frames
Codec ID : avc1
Codec ID/Info : Advanced Video Coding
Duration : 1 h 47 min
Bit rate : 6 646 kb/s
Nominal bit rate : 7 000 kb/s
Width : 1 920 pixels
Height : 1 080 pixels
Display aspect ratio : 16:9
Frame rate mode : Constant
Frame rate : 29.970 (29970/1000) FPS
Color space : YUV
Chroma subsampling : 4:2:0
Bit depth : 8 bits
Scan type : Progressive
Bits/(Pixel*Frame) : 0.107
Stream size : 4.98 GiB (95%)
Writing library : x264 core 146
Encoding settings : cabac=1 / ref=3 / deblock=1:0:0 / analyse=0x3:0x113 / me=hex / subme=7 / psy=1 / psy_rd=1.00:0.00 / mixed_ref=1 / me_range=16 / chroma_me=1 / trellis=1 / 8x8dct=1 / cqm=0 / deadzone=21,11 / fast_pskip=1 / chroma_qp_offset=-2 / threads=18 / lookahead_threads=3 / sliced_threads=0 / nr=0 / decimate=1 / interlaced=0 / bluray_compat=0 / constrained_intra=0 / bframes=2 / b_pyramid=2 / b_adapt=1 / b_bias=0 / direct=1 / weightb=1 / open_gop=0 / weightp=2 / keyint=89 / keyint_min=30 / scenecut=40 / intra_refresh=0 / rc_lookahead=40 / rc=cbr / mbtree=1 / bitrate=7000 / ratetol=1.0 / qcomp=0.60 / qpmin=0 / qpmax=69 / qpstep=4 / vbv_maxrate=7000 / vbv_bufsize=7000 / nal_hrd=none / filler=0 / ip_ratio=1.40 / aq=1:1.00
Codec configuration box : avcC

Audio
ID : 2
Format : AAC LC
Format/Info : Advanced Audio Codec Low Complexity
Codec ID : mp4a-40-2
Duration : 1 h 47 min
Bit rate mode : Variable
Bit rate : 319 kb/s
Maximum bit rate : 7 000 kb/s
Channel(s) : 2 channels
Channel layout : L R
Sampling rate : 48.0 kHz
Frame rate : 46.875 FPS (1024 SPF)
Compression mode : Lossy
Stream size : 245 MiB (5%)
Default : Yes
Alternate group : 1

资源下载此资源仅限注册用户下载,请先
资源在百度网盘,如有链接失效、解压码错误等、请联系管理微信:aimuvv
资源下载
下载价格:免费
资源在百度网盘,如有链接失效、解压码错误等、请联系管理微信:aimuvv

原文链接:https://www.lgych.com/23305.html,转载请注明出处。

0

评论223

请先

  1. 好啊,真棒。还是个免费的
    673140704周前
  2. 感谢楼主分享!
    dashilan4周前
  3. 謝謝樓主分享
    stacy12124周前
  4. 谢谢楼主分享
    xiaoxiaomei3周前
  5. 值得珍藏感謝分享
    tclee3周前
  6. 很全很清晰 ,谢谢楼主分享!
    萤火虫20213周前
  7. 给按谢楼主分享
    wzx198804113周前
  8. 很全很清晰 ,谢谢楼主分享!值得珍藏感谢分享
    萤火虫20213周前
  9. 感谢分享
    ting1233周前
  10. 謝謝分享
    冰封殺氣3周前
  11. 感谢楼主热心分享
    友烧友22周前
  12. 感谢楼主
    xiaoxiaomei2周前
  13. 感谢楼主
    jerrykol2周前
  14. 还可以
    pzyx2周前
  15. 感谢楼主的分享
    syf8109234天前
  16. 多谢分享,支持点赞
    ly0013天前
  17. 谢谢楼主分享!
    liuying0013天前
  18. 感谢分享
    lilast1天前
  19. 感谢楼主热心分享
    aux1021天前
1 9 10 11

华语蓝光演唱会 - 历史以来所有华语蓝光合集 246部10.6T资源终极收藏!:https://www.lgych.com/cnbd/

没有账号? 注册  忘记密码?