Smash Hits 7 2019 REPACK BluRay 1080p DTS-HD MA.5.1 AVC《Remux MKV 37.4G》

General
Unique ID                                : 187123245595038735101860491224933144651 (0x8CC6A04E8726C74B30FB2CB3584F184B)
Complete name                            : Smash.Hits.7.2019.REPACK.BluRay.1080p.DTS-HD.MA.5.1.AVC.REMUX-FraMeSToR.mkv
Format                                   : Matroska
Format version                           : Version 4 / Version 2
File size                                : 37.5 GiB
Duration                                 : 2 h 13 min
Overall bit rate                         : 40.0 Mb/s
Movie name                               : Smash Hits 7 (2019)
Encoded date                             : UTC 2019-06-21 14:04:24
Writing application                      : mkvmerge v34.0.0 (‘Sight and Seen’) 64-bit
Writing library                          : libebml v1.3.7 + libmatroska v1.5.0

Video
ID                                       : 1
Format                                   : AVC
Format/Info                              : Advanced Video Codec
Format profile                           : High@L4.1
Format settings                          : 4 Ref Frames
Format settings, CABAC                   : No
Format settings, RefFrames               : 4 frames
Format settings, GOP                     : M=4, N=12
Codec ID                                 : V_MPEG4/ISO/AVC
Duration                                 : 2 h 13 min
Bit rate                                 : 34.9 Mb/s
Width                                    : 1 920 pixels
Height                                   : 1 080 pixels
Display aspect ratio                     : 16:9
Frame rate mode                          : Constant
Frame rate                               : 24.000 FPS
Color space                              : YUV
Chroma subsampling                       : 4:2:0
Bit depth                                : 8 bits
Scan type                                : Progressive
Bits/(Pixel*Frame)                       : 0.701
Stream size                              : 32.7 GiB (87%)
Default                                  : Yes
Forced                                   : No

Audio
ID                                       : 2
Format                                   : DTS
Format/Info                              : Digital Theater Systems
Format profile                           : MA / Core
Codec ID                                 : A_DTS
Duration                                 : 2 h 13 min
Bit rate mode                            : Variable / Constant
Bit rate                                 : 5 137 kb/s / 1 509 kb/s
Channel(s)                               : 6 channels
Channel positions                        : Front: L C R, Side: L R, LFE
Sampling rate                            : 48.0 kHz
Frame rate                               : 93.750 FPS (512 SPF)
Bit depth                                : 24 bits
Compression mode                         : Lossless / Lossy
Stream size                              : 4.81 GiB (13%)
Title                                    : DTS-HD MA 5.1
Language                                 : Hindi
Default                                  : Yes
Forced                                   : No

Menu
00:00:00.000                             : en:Dil Chori…
00:03:37.333                             : en:Chhote Chhote Peg…
00:06:27.083                             : en:Bom Diggy Diggy…
00:09:40.041                             : en:Kaun Nachdi…
00:12:08.166                             : en:Hatt Ja Tau…
00:15:05.249                             : en:Talli Tonight…
00:18:30.749                             : en:Aashiq Banaya Aapne…
00:20:00.833                             : en:Boond Boond…
00:22:21.374                             : en:Badnaamiyan…
00:26:31.916                             : en:Mundiyan…
00:29:15.666                             : en:Ek Do Teen…
00:33:11.124                             : en:O Saathi…
00:36:36.916                             : en:Get Ready To Fight Again…
00:39:43.249                             : en:Happy Happy…
00:42:43.666                             : en:Patola…
00:45:13.499                             : en:Sanu Ek Pal Chain…
00:48:41.458                             : en:Nit Khair Manga…
00:52:26.874                             : en:Tere Thumke Sapna Choudhary…
00:55:46.624                             : en:Main Badhiya Tu Bhi Badhiya…
01:00:25.541                             : en:High Rated Gabru…
01:03:43.749                             : en:Dilbar…
01:06:40.624                             : en:Paniyon Sa…
01:10:07.041                             : en:Dekhte Dekhte…
01:14:13.208                             : en:Hard Hard…
01:16:50.041                             : en:Chogada…
01:22:15.208                             : en:Tera Hua…
01:25:28.999                             : en:Rangtaari…
01:29:11.583                             : en:Milegi Milegi…
01:31:46.249                             : en:Aao Kabhi Haveli Pe…
01:34:59.874                             : en:Chota Sa Fasana…
01:38:30.249                             : en:Mere Naam Tu…
01:43:50.458                             : en:Issaqbaazi…
01:48:44.374                             : en:Husn Parcham…
01:51:19.541                             : en:Aankh Marey…
01:54:32.916                             : en:Tere Bin…
01:58:25.666                             : en:Aala Re Aala…
02:00:46.874                             : en:Mera Wala Dance…
02:02:58.791                             : en:Oh Humsafar…
02:06:30.124                             : en:Urvashi…
02:10:39.749                             : en:Pretty Girl…

资源下载此资源下载价格为10金币,请先
资源在百度网盘,如有链接失效、解压码错误等、请联系管理微信:aimuvv
资源下载
下载价格:10 金币
VIP优惠:免费
资源在百度网盘,如有链接失效、解压码错误等、请联系管理微信:aimuvv

原文链接:https://www.lgych.com/29966.html,转载请注明出处。

0

评论35

请先

  1. 感谢楼主热心分享优质的影片
    wxkylz4周前
  2. 感谢分享
    leaveshd4周前
  3. 楼主大好人
    王海泉水3周前
  4. 谢谢分享!!
    zjz3323周前
  5. 感谢分享
    lzbw2223周前
  6. 特别好,感谢分享,哈哈!
    余震2周前
  7. 感谢感谢
    17155773232周前
  8. 印度神曲?
    272127232周前
  9. 多謝版主分享!!
    coco8752周前
  10. 不错不错,谢谢老板分享!
    w45159252周前
  11. 日行一善
    Qq1704316271周前
  12. 特别好,感谢分享!
    自尊宝237天前
  13. 感谢楼主分享
    yongzhong wu6天前
  14. 多謝分享!!
    coco8754天前
  15. 謝謝樓主分享
    skip3天前
1 2

每个资源10金币,可以免费下载,也可以赞助我们可持续发展!详情查看:https://www.lgych.com/jinbi

没有账号? 注册  忘记密码?