UCHIDA MAAYA 1st LIVE Hello, 1st contact!《BDrip MKV 13.6G》

[滤镜使用列表]
(1) Built-in MKV Source
(2) Built-in Video Codec/Transform
(3) Enhanced Video Renderer(Custom Present)
(4) Built-in Audio Codec/Transform
(5) DirectSound Audio Renderer

[视频信息]
视频编码: AVC1 - 内置 FFmpeg 解码器(h264, Thread Frame)
输入格式: AVC1(24 bits)
输入尺寸: 1920 × 1080(1.78:1)
输出格式: NV12(12 bits)
输出尺寸: 1920 × 1080(1.78:1)
帧率: 23.976
BitRate: 未知

[音频信息]
音频编码: FLAC Framed(0xf1ac) - OpenCodec(FLAC Decoder)
采样率: 48000 -> 48000 Hz
位率: 24 -> 16 位
声道数: 2 -> 2 声道
Bitrate: 2304 kbps

General
Unique ID : 235684748253654062636564880934495747775 (0xB14F3B3DAAA7AFE59D048694EE327EBF)
Complete name : I:\UCH-1ST-13.6\UCHIDA MAAYA 1st LIVE「Hello, 1st contact!」[1080p]\UCHIDA MAAYA 1st LIVE「Hello, 1st contact!」[Hi10p_1080p][BDRip][x264_flac].mkv
Format : Matroska
Format version : Version 4
File size : 12.4 GiB
Duration : 1 h 42 min
Overall bit rate mode : Variable
Overall bit rate : 17.3 Mb/s
Encoded date : UTC 2016-09-24 00:49:15
Writing application : mkvmerge v8.3.0 ('Over the Horizon') 64bit
Writing library : libebml v1.3.1 + libmatroska v1.4.2

Video
ID : 1
Format : AVC
Format/Info : Advanced Video Codec
Format profile : High 10@L5
Format settings : CABAC / 8 Ref Frames
Format settings, CABAC : Yes
Format settings, Reference fra : 8 frames
Codec ID : V_MPEG4/ISO/AVC
Duration : 1 h 42 min
Bit rate : 15.6 Mb/s
Width : 1 920 pixels
Height : 1 080 pixels
Display aspect ratio : 16:9
Frame rate mode : Constant
Frame rate : 23.976 (24000/1001) FPS
Color space : YUV
Chroma subsampling : 4:2:0
Bit depth : 10 bits
Scan type : Progressive
Bits/(Pixel*Frame) : 0.314
Stream size : 11.2 GiB (90%)
Writing library : x264 core 148 r2699+6+41 29a38aa Yuuki [10-bit@all X86_64][GCC 5.3.0]
Encoding settings : cabac=1 / ref=8 / deblock=1:-1:-1 / analyse=0x3:0x133 / me=umh / subme=10 / psy=1 / fade_compensate=0.00 / psy_rd=1.00:0.15 / mixed_ref=1 / me_range=32 / chroma_me=1 / trellis=2 / 8x8dct=1 / cqm=0 / deadzone=21,11 / fast_pskip=1 / chroma_qp_offset=-3 / threads=16 / lookahead_threads=2 / sliced_threads=0 / nr=0 / decimate=0 / interlaced=0 / bluray_compat=0 / constrained_intra=0 / fgo=0 / bframes=8 / b_pyramid=2 / b_adapt=2 / b_bias=0 / direct=3 / weightb=1 / open_gop=0 / weightp=2 / keyint=720 / keyint_min=1 / scenecut=40 / intra_refresh=0 / rc_lookahead=60 / rc=crf / mbtree=1 / crf=18.0000 / qcomp=0.70 / qpmin=0:0:0 / qpmax=81:81:81 / qpstep=4 / vbv_maxrate=30000 / vbv_bufsize=40000 / crf_max=0.0 / nal_hrd=none / filler=0 / ip_ratio=1.40 / aq=1:0.90
Language : English
Default : Yes
Forced : No
Color range : Limited
Matrix coefficients : BT.709

Audio
ID : 2
Format : FLAC
Format/Info : Free Lossless Audio Codec
Codec ID : A_FLAC
Duration : 1 h 42 min
Bit rate mode : Variable
Bit rate : 1 713 kb/s
Channel(s) : 2 channels
Channel layout : L R
Sampling rate : 48.0 kHz
Frame rate : 11.719 FPS (4096 SPF)
Bit depth : 24 bits
Compression mode : Lossless
Stream size : 1.23 GiB (10%)
Writing library : libFLAC 1.3.1 (UTC 2014-11-25)
Default : Yes
Forced : No

Menu
00:00:00.000 : en:Chapter 01
00:01:05.565 : en:Chapter 02
00:02:20.098 : en:Chapter 03
00:06:33.935 : en:Chapter 04
00:11:17.218 : en:Chapter 05
00:12:44.180 : en:Chapter 06
00:16:21.981 : en:Chapter 07
00:18:27.898 : en:Chapter 08
00:21:57.149 : en:Chapter 09
00:26:15.407 : en:Chapter 10
00:31:08.700 : en:Chapter 11
00:34:58.096 : en:Chapter 12
00:39:03.341 : en:Chapter 13
00:43:34.445 : en:Chapter 14
00:47:55.206 : en:Chapter 15
00:52:20.637 : en:Chapter 16
00:55:51.473 : en:Chapter 17
00:59:24.227 : en:Chapter 18
01:03:13.623 : en:Chapter 19
01:09:13.149 : en:Chapter 20
01:13:30.406 : en:Chapter 21
01:16:49.772 : en:Chapter 22
01:18:19.194 : en:Chapter 23
01:26:32.187 : en:Chapter 24
01:30:27.422 : en:Chapter 25
01:33:47.997 : en:Chapter 26
01:39:17.034 : en:Chapter 27

资源下载此资源下载价格为7金币,VIP免费,请先
所有资源都在百度网盘,如有链接失效、解压错误等、请联系管理微信:aimuvv
资源下载
下载价格7 金币
VIP免费
所有资源都在百度网盘,如有链接失效、解压错误等、请联系管理微信:aimuvv

原文链接:https://www.lgych.com/40594.html,转载请注明出处。

0

评论160

请先

  1. 谢谢分享
    zcd2kk 2022-05-13 0
  2. 謝謝
    bobiti2622 2022-05-29 0
  3. 感謝樓主無私奉獻!
    rerkicok 2022-06-01 0
  4. 谢谢分享!
    user_zbz 2022-06-01 0
  5. 谢谢分享
    zhangzhang 2022-06-03 0
  6. 谢谢分享
    awccn8888 2022-06-23 0
  7. 感谢分享
    Handsche 2022-07-10 0
  8. 多谢分享!
    Hkys 2022-07-10 0
  9. 多谢分享!
    a7886650 2022-07-10 0
  10. 多谢分享!
    q7886650 2022-07-10 0
  11. 皮皮巴巴多谢分享!皮皮巴巴多谢分享!皮皮巴巴多谢分享!皮皮巴巴多谢分享!
    路遥知马丽 2022-07-11 0
  12. hym9711 4周前 0
  13. 谢谢分享
    hymhym 4周前 0
  14. 谢谢分享…
    huyiming249 4周前 0
  15. 谢谢分享一
    971145 4周前 0
  16. 感谢分享
    Hakku 4周前 0
  17. 感谢楼主无私奉献
    lijinqiao2020 2周前 0
1 6 7 8
华语蓝光合集 252部11T资源终极收藏!支持硬盘拷贝:https://www.lgych.com/cnbd/
显示验证码
没有账号? 注册  忘记密码?