Boyzone - Back Again - No Matter What Live 2008 1080p x265 BluRay《BDrip MKV 7.34G》

[滤镜使用列表]
(1) Built-in MKV Source
(2) Built-in Video Codec/Transform
(3) Enhanced Video Renderer(Custom Present)
(4) Built-in Audio Codec/Transform
(5) DirectSound Audio Renderer

[视频信息]
视频编码: HVC1 - Native D3D9 DXVA Decoder(VLD) - NVIDIA Quadro M1000M
输入格式: HVC1(24 bits)
输入尺寸: 1912 × 1080(1.77:1)
输出格式: dxva
输出尺寸: 1908 × 1080(1.77:1)
帧率: 23.976
BitRate: 未知

[音频信息]
音频编码: Dolby AC3(0x2000) - 内置 FFmpeg 解码器(ac3)
采样率: 48000 -> 48000 Hz
位率: 0 -> 16 位
声道数: 6 -> 2 声道
Bitrate: 640 kbps

General
Unique ID : 238004951844628348406307845469595861508 (0xB30E161C25D588018F3847B083118204)
Complete name : J:\8888\BOY-2008-7.34\Boyzone - Back Again - No Matter What Live (2008) 1080p x265 BluRay -Shiv@.mkv\Boyzone - Back Again - No Matter What Live (2008) 1080p x265 BluRay -Shiv@.mkv
Format : Matroska
Format version : Version 2
File size : 7.35 GiB
Duration : 1 h 53 min
Overall bit rate : 9 244 kb/s
Encoded date : UTC 2015-03-22 16:14:11
Writing application : mkvmerge v7.7.0 ('Six Voices') 64bit built on Feb 28 2015 23:39:33
Writing library : libebml v1.3.1 + libmatroska v1.4.2

Video
ID : 1
Format : HEVC
Format/Info : High Efficiency Video Coding
Format profile : Main@L4@Main
Codec ID : V_MPEGH/ISO/HEVC
Duration : 1 h 53 min
Bit rate : 8 602 kb/s
Width : 1 912 pixels
Original width : 1 908 pixels
Height : 1 080 pixels
Display aspect ratio : 16:9
Frame rate mode : Constant
Frame rate : 23.976 (24000/1001) FPS
Color space : YUV
Chroma subsampling : 4:2:0
Bit depth : 8 bits
Bits/(Pixel*Frame) : 0.174
Stream size : 6.84 GiB (93%)
Title : Boyzone - Back Again - No Matter What Live (2008) - x265 - 1080p - Avg QP=24.56 -Shiv@
Default : Yes
Forced : No

Audio
ID : 2
Format : AC-3
Format/Info : Audio Coding 3
Commercial name : Dolby Digital
Codec ID : A_AC3
Duration : 1 h 53 min
Bit rate mode : Constant
Bit rate : 640 kb/s
Channel(s) : 6 channels
Channel layout : L R C LFE Ls Rs
Sampling rate : 48.0 kHz
Frame rate : 31.250 FPS (1536 SPF)
Compression mode : Lossy
Stream size : 521 MiB (7%)
Title : English Ac3 5.1 chnls 640 kbps
Language : English
Service kind : Complete Main
Default : Yes
Forced : No

Menu
00:00:00.000 : en:00:00:00.000
00:02:15.969 : en:00:02:15.969
00:05:42.509 : en:00:05:42.509
00:09:23.480 : en:00:09:23.480
00:13:11.290 : en:00:13:11.290
00:18:22.810 : en:00:18:22.810
00:22:38.274 : en:00:22:38.274
00:27:30.482 : en:00:27:30.482
00:32:06.466 : en:00:32:06.466
00:38:06.576 : en:00:38:06.576
00:43:28.606 : en:00:43:28.606
00:45:16.839 : en:00:45:16.839
00:46:33.082 : en:00:46:33.082
00:48:23.192 : en:00:48:23.192
00:50:06.712 : en:00:50:06.712
00:52:22.973 : en:00:52:22.973
00:54:38.150 : en:00:54:38.150
00:59:26.062 : en:00:59:26.062
01:00:50.355 : en:01:00:50.355
01:05:38.893 : en:01:05:38.893
01:11:54.393 : en:01:11:54.393
01:17:35.693 : en:01:17:35.693
01:25:28.081 : en:01:25:28.081
01:29:08.301 : en:01:29:08.301
01:35:09.454 : en:01:35:09.454
01:35:38.900 : en:01:35:38.900
01:37:44.400 : en:01:37:44.400
01:42:40.613 : en:01:42:40.613
01:47:21.935 : en:01:47:21.935
01:52:53.475 : en:01:52:53.475

 

资源下载此资源下载价格为5金币,VIP免费,请先
所有资源都在百度网盘,如有链接失效、解压错误等、请联系管理微信:aimuvv
资源下载
下载价格5 金币
VIP免费
所有资源都在百度网盘,如有链接失效、解压错误等、请联系管理微信:aimuvv

原文链接:https://www.lgych.com/40737.html,转载请注明出处。

0

评论122

请先

  1. 皮皮巴巴多谢分享!皮皮巴巴多谢分享!皮皮巴巴多谢分享!皮皮巴巴多谢分享!
    春天来了 2022-07-11 0
  2. 多谢分享好资源!
    wo94ty 1周前 0
1 5 6 7
华语蓝光合集 252部11T资源终极收藏!支持硬盘拷贝:https://www.lgych.com/cnbd/
显示验证码
没有账号? 注册  忘记密码?