Steve Hackett - Genesis Revisited Band and Orchestra Live at the Royal Festival Hall 2019《Remux MKV 17.5G》

[视频信息]
视频编码: AVC1 - 内置 FFmpeg 解码器(h264, Thread Frame)
输入格式: AVC1(24 bits)
输入尺寸: 1920 × 1080(1.78:1)
输出格式: NV12(12 bits)
输出尺寸: 1920 × 1080(1.78:1)
帧率: 23.976
BitRate: 未知

[音频信息]
音频编码: DTS(0x2001) - FFmpegMininum64.dll(dca)
采样率: 48000 -> 48000 Hz
位率: 24 -> 16 位
声道数: 6 -> 2 声道
Bitrate: 1509 kbps

General
Unique ID : 42040184577895712989453635390141697247 (0x1FA0A520FD0A1F8195F193F780450CDF)
Complete name : I:\STE-2019-17.5\Steve Hackett - Genesis Revisited Band and Orchestra Live at the Royal Festival Hall [2019]\Steve Hackett - Genesis Revisited Band and Orchestra Live at the Royal Festival Hall [2019] PART - 1.mkv
Format : Matroska
Format version : Version 4
File size : 7.26 GiB
Duration : 56 min 31 s
Overall bit rate mode : Variable
Overall bit rate : 18.4 Mb/s
Encoded date : UTC 2019-11-08 17:20:13
Writing application : mkvmerge v38.0.0 ('The Silent Type') 64-bit
Writing library : libebml v1.3.9 + libmatroska v1.5.2 / Lavf57.41.100

Video
ID : 1
Format : AVC
Format/Info : Advanced Video Codec
Format profile : Baseline@L3
Format settings : 1 Ref Frames
Format settings, CABAC : No
Format settings, Reference fra : 1 frame
Codec ID : V_MPEG4/ISO/AVC
Duration : 56 min 31 s
Bit rate : 13.6 Mb/s
Width : 1 920 pixels
Height : 1 080 pixels
Display aspect ratio : 16:9
Frame rate mode : Constant
Frame rate : 23.976 (24000/1001) FPS
Color space : YUV
Chroma subsampling : 4:2:0
Bit depth : 8 bits
Scan type : Progressive
Bits/(Pixel*Frame) : 0.274
Stream size : 5.36 GiB (74%)
Writing library : x264 core 148 r2643 5c65704
Encoding settings : cabac=0 / ref=1 / deblock=1:0:0 / analyse=0x1:0x111 / me=hex / subme=7 / psy=1 / psy_rd=1.00:0.00 / mixed_ref=0 / me_range=16 / chroma_me=1 / trellis=1 / 8x8dct=0 / cqm=0 / deadzone=21,11 / fast_pskip=1 / chroma_qp_offset=-2 / threads=6 / lookahead_threads=1 / sliced_threads=0 / nr=0 / decimate=1 / interlaced=0 / bluray_compat=0 / constrained_intra=0 / bframes=0 / weightp=0 / keyint=250 / keyint_min=25 / scenecut=40 / intra_refresh=0 / rc_lookahead=40 / rc=abr / mbtree=1 / bitrate=13600 / ratetol=1.0 / qcomp=0.60 / qpmin=10 / qpmax=51 / qpstep=4 / ip_ratio=1.41 / aq=1:1.00
Default : Yes
Forced : No

Audio
ID : 2
Format : DTS XLL
Format/Info : Digital Theater Systems
Commercial name : DTS-HD Master Audio
Codec ID : A_DTS
Duration : 56 min 31 s
Bit rate mode : Variable
Bit rate : 4 804 kb/s
Channel(s) : 6 channels
Channel layout : C L R Ls Rs LFE
Sampling rate : 48.0 kHz
Frame rate : 93.750 FPS (512 SPF)
Bit depth : 24 bits
Compression mode : Lossless
Stream size : 1.90 GiB (26%)
Language : English
Default : No
Forced : No

Menu
00:00:00.000 : :Глава 01
00:07:16.144 : :Глава 02
00:09:48.129 : :Глава 03
00:17:07.234 : :Глава 04
00:28:56.317 : :Глава 05
00:37:40.967 : :Глава 06
00:44:35.756 : :Глава 07
00:56:31.388 : :Глава 08

资源下载此资源下载价格为10金币,VIP免费,请先
所有资源都在百度网盘,如有链接失效、解压错误等、请联系管理微信:aimuvv
资源下载
下载价格10 金币
VIP免费
所有资源都在百度网盘,如有链接失效、解压错误等、请联系管理微信:aimuvv

原文链接:https://www.lgych.com/41791.html,转载请注明出处。

0

评论147

请先

  1. 谢谢分享!
    user_zbz 4周前 0
  2. 多谢分享好资源!
    wo94ty 1周前 0
1 6 7 8
华语蓝光合集 252部11T资源终极收藏!支持硬盘拷贝:https://www.lgych.com/cnbd/
显示验证码
没有账号? 注册  忘记密码?