Billy Joel - Live At Shea Stadium 1996《BDrip MKV 13.1G》

[视频信息]
视频编码: AVC1 - Native D3D9 DXVA Decoder(VLD) - NVIDIA Quadro M1000M
输入格式: AVC1(24 bits)
输入尺寸: 1920 × 1080(1.78:1)
输出格式: dxva
输出尺寸: 1920 × 1080(1.78:1)
帧率: 29.97
BitRate: 未知

[音频信息]
音频编码: Dolby AC3(0x2000) - 内置 FFmpeg 解码器(ac3)
采样率: 48000 -> 48000 Hz
位率: 0 -> 16 位
声道数: 6 -> 2 声道
Bitrate: 640 kbps

General
Unique ID : 204249795543629323549134724282369441365 (0x99A91469A8F9F750D20D5BEEAB93FE55)
Complete name : Z:\Billy Joel Live At Shea Stadium (1996).1080p.BluRay.DTS.x264.mkv
Format : Matroska
Format version : Version 2
File size : 13.1 GiB
Duration : 2 h 20 min
Overall bit rate : 13.3 Mb/s
Writing application : HandBrake 0.9.8
Writing library : libmkv 0.6.5

Video
ID : 1
Format : AVC
Format/Info : Advanced Video Codec
Format profile : High@L4.1
Format settings : CABAC / 4 Ref Frames
Format settings, CABAC : Yes
Format settings, Reference fra : 4 frames
Codec ID : V_MPEG4/ISO/AVC
Duration : 2 h 20 min
Bit rate : 12.7 Mb/s
Width : 1 920 pixels
Height : 1 080 pixels
Display aspect ratio : 16:9
Frame rate mode : Constant
Frame rate : 29.970 FPS
Color space : YUV
Chroma subsampling : 4:2:0
Bit depth : 8 bits
Scan type : Progressive
Bits/(Pixel*Frame) : 0.204
Stream size : 12.2 GiB (93%)
Writing library : x264 core 120
Encoding settings : cabac=1 / ref=4 / deblock=1:0:0 / analyse=0x3:0x133 / me=umh / subme=8 / psy=1 / psy_rd=1.00:0.00 / mixed_ref=1 / me_range=16 / chroma_me=1 / trellis=1 / 8x8dct=1 / cqm=0 / deadzone=21,11 / fast_pskip=1 / chroma_qp_offset=-2 / threads=6 / sliced_threads=0 / nr=0 / decimate=1 / interlaced=0 / bluray_compat=0 / constrained_intra=0 / bframes=3 / b_pyramid=2 / b_adapt=1 / b_bias=0 / direct=1 / weightb=1 / open_gop=0 / weightp=0 / keyint=300 / keyint_min=30 / scenecut=40 / intra_refresh=0 / rc_lookahead=10 / rc=2pass / mbtree=1 / bitrate=12687 / ratetol=1.0 / qcomp=0.60 / qpmin=3 / qpmax=69 / qpstep=4 / cplxblur=20.0 / qblur=0.5 / ip_ratio=1.40 / aq=1:1.00
Language : English
Default : Yes
Forced : No
Color range : Limited
Color primaries : BT.709
Transfer characteristics : BT.709
Matrix coefficients : BT.709

Audio
ID : 2
Format : AC-3
Format/Info : Audio Coding 3
Commercial name : Dolby Digital
Codec ID : A_AC3
Duration : 2 h 20 min
Bit rate mode : Constant
Bit rate : 640 kb/s
Channel(s) : 6 channels
Channel layout : L R C LFE Ls Rs
Sampling rate : 48.0 kHz
Frame rate : 31.250 FPS (1536 SPF)
Compression mode : Lossy
Stream size : 645 MiB (5%)
Language : English
Service kind : Complete Main
Default : Yes
Forced : No

资源下载此资源下载价格为10金币,终身VIP免费,请先
所有资源都在百度网盘,如有链接失效、解压错误等、请联系管理微信:aimuvv
资源下载
下载价格10 金币
终身VIP免费
所有资源都在百度网盘,如有链接失效、解压错误等、请联系管理微信:aimuvv

原文链接:https://www.lgych.com/42772.html,转载请注明出处。

0

评论114

请先

  1. 太多好资源了!谢谢分享!
    531707712 2022-06-28 0
  2. 太多好资源了!谢谢分享!
    simoneluisi 2022-06-28 0
  3. 太多好资源了!谢谢分享!
    simoneluisi1 2022-06-28 0
  4. 谢谢分享“
    hymhym 2022-07-01 0
  5. 谢谢分享
    971145 2022-07-01 0
  6. 谢谢分享
    hym9711 2022-07-02 0
  7. 谢谢分享.
    hym9711 2022-07-02 0
  8. 谢谢分享L
    hymhym 2022-07-02 0
  9. 谢谢分享7
    huyiming249 2022-07-02 0
  10. 谢谢分享8
    971145 2022-07-02 0
  11. 谢谢分享!
    user_zbz 4周前 0
  12. 多谢分享好资源!
    wo94ty 2周前 0
1 4 5 6
华语蓝光合集 252部11T资源终极收藏!支持硬盘拷贝:https://www.lgych.com/cnbd/
显示验证码
没有账号? 注册  忘记密码?