Tesseract - Portals 2020 BluRay 1080p Remux AVC LPCM 2.0《Remux MKV 13.3G》

[视频信息]
视频编码: AVC1 - Native D3D9 DXVA Decoder(VLD) - NVIDIA Quadro M1000M
输入格式: AVC1(24 bits)
输入尺寸: 1920 × 1080(1.78:1)
输出格式: dxva
输出尺寸: 1920 × 1080(1.78:1)
帧率: 23.976
BitRate: 未知

[音频信息]
音频编码: ExtPCM(0xfffe)
采样率: 48000 -> 48000 Hz
位率: 24 -> 24 位
声道数: 2 -> 2 声道
Bitrate: 2304 kbps

General
Unique ID : 221651118560620077509233060442109977273 (0xA6C073E07EE57A404F81D8E9731D22B9)
Complete name : Z:\Tesseract - Portals 2020 BluRay 1080p Remux AVC LPCM 2.0-Gamma.mkv
Format : Matroska
Format version : Version 4
File size : 13.3 GiB
Duration : 1 h 50 min
Overall bit rate mode : Variable
Overall bit rate : 17.3 Mb/s
Movie name : Portals
Encoded date : UTC 2021-09-25 08:59:59
Writing application : mkvmerge v61.0.0 ('So') 64-bit
Writing library : libebml v1.4.2 + libmatroska v1.6.4
Cover : Yes
Attachments : cover.jpg

Video
ID : 1
ID in the original source medi : 4113 (0x1011)
Format : AVC
Format/Info : Advanced Video Codec
Format profile : High@L4.1
Format settings : CABAC / 3 Ref Frames
Format settings, CABAC : Yes
Format settings, Reference fra : 3 frames
Codec ID : V_MPEG4/ISO/AVC
Duration : 1 h 50 min
Bit rate mode : Variable
Bit rate : 15.0 Mb/s
Maximum bit rate : 20.0 Mb/s
Width : 1 920 pixels
Height : 1 080 pixels
Display aspect ratio : 16:9
Frame rate mode : Constant
Frame rate : 23.976 (24000/1001) FPS
Standard : NTSC
Color space : YUV
Chroma subsampling : 4:2:0
Bit depth : 8 bits
Scan type : Progressive
Bits/(Pixel*Frame) : 0.302
Stream size : 11.6 GiB (87%)
Writing library : x264pro - Adobe CS Exporter Plug-in
Encoding settings : cabac=1 / ref=4 / deblock=1:-1:-1 / analyse=0x3:0x133 / me=umh / subme=10 / psy=1 / psy_rd=1.00:0.15 / mixed_ref=1 / me_range=24 / chroma_me=1 / trellis=2 / 8x8dct=1 / cqm=0 / deadzone=21,11 / fast_pskip=1 / chroma_qp_offset=-3 / threads=12 / lookahead_threads=2 / sliced_threads=0 / slices=4 / nr=0 / decimate=1 / interlaced=0 / bluray_compat=1 / constrained_intra=0 / bframes=3 / b_pyramid=1 / b_adapt=2 / b_bias=0 / direct=3 / weightb=1 / open_gop=0 / weightp=1 / keyint=24 / keyint_min=1 / scenecut=40 / intra_refresh=0 / rc_lookahead=35 / rc=2pass / mbtree=1 / bitrate=15000 / ratetol=1.0 / qcomp=0.60 / qpmin=0 / qpmax=69 / qpstep=4 / cplxblur=20.0 / qblur=0.5 / vbv_maxrate=20000 / vbv_bufsize=30000 / nal_hrd=vbr / ip_ratio=1.40 / aq=1:1.00
Default : Yes
Forced : No
Color range : Limited
Color primaries : BT.709
Transfer characteristics : BT.709
Matrix coefficients : BT.709
Original source medium : Blu-ray

Audio
ID : 2
ID in the original source medi : 4352 (0x1100)
Format : PCM
Format settings : Little / Signed
Codec ID : A_PCM/INT/LIT
Duration : 1 h 50 min
Bit rate mode : Constant
Bit rate : 2 304 kb/s
Channel(s) : 2 channels
Sampling rate : 48.0 kHz
Frame rate : 200.000 FPS (240 SPF)
Bit depth : 24 bits
Stream size : 1.78 GiB (13%)
Language : English
Default : Yes
Forced : No
Original source medium : Blu-ray

Menu
00:00:00.000 : 第 01 章
00:01:00.560 : 第 02 章
00:14:59.690 : 第 03 章
00:21:21.238 : 第 04 章
00:21:52.227 : 第 05 章
00:39:46.342 : 第 06 章
00:44:42.554 : 第 07 章
00:45:25.764 : 第 08 章
00:51:04.686 : 第 09 章
00:56:27.008 : 第 10 章
00:58:34.552 : 第 11 章
01:04:06.384 : 第 12 章
01:04:40.001 : 第 13 章
01:10:17.713 : 第 14 章
01:17:03.535 : 第 15 章
01:21:08.655 : 第 16 章
01:25:29.207 : 第 17 章
01:26:06.786 : 第 18 章
01:32:22.578 : 第 19 章
01:43:04.845 : 第 20 章
01:48:18.408 : 第 21 章

资源下载此资源下载价格为10金币,VIP免费,请先
所有资源都在百度网盘,如有链接失效、解压错误等、请联系管理微信:aimuvv
资源下载
下载价格10 金币
VIP免费
所有资源都在百度网盘,如有链接失效、解压错误等、请联系管理微信:aimuvv

原文链接:https://www.lgych.com/43756.html,转载请注明出处。

0

评论121

请先

  1. 谢谢楼主
    得闲饮茶咯喂 2022-06-03 0
  2. 多谢分享
    蓝色天空 2022-06-05 0
  3. 多谢分享
    sjry 2022-06-05 0
  4. 非常棒,收藏了
    bobiti2622 2022-06-06 0
  5. 谢谢了
    得闲饮茶 2022-06-07 0
  6. 多谢分享好资源
    jgl888 2022-06-11 0
  7. 值得珍藏
    jgl888 2022-06-14 0
  8. 謝謝分享
    conro 2022-06-14 0
  9. 好多歌曲都好聽。
    cfgfrblyykgdaktzny 2022-06-18 0
  10. 感谢分享
    andyzh 2022-06-24 0
  11. 谢谢分享
    灰色系927 2022-06-24 0
  12. 多谢分享
    CSLancelot 2022-06-28 0
  13. 谢谢分享ssdd
    hym9711 2022-06-30 0
  14. 谢谢分享sdds
    hymhym 2022-06-30 0
  15. 谢谢分享
    huyiming249 2022-06-30 0
  16. 谢谢分享ddd
    971145 2022-06-30 0
  17. 谢谢分享,精彩
    andy919 2022-07-02 0
  18. 感谢分享演唱会感谢分享演唱会感谢分享演唱会感谢分享演唱会感谢分享演唱会感谢分享演唱会
    皮皮巴巴 2022-07-11 0
  19. 谢谢分享!
    user_zbz 4周前 0
  20. 多谢分享好资源!
    wo94ty 2周前 0
1 4 5 6
华语蓝光合集 252部11T资源终极收藏!支持硬盘拷贝:https://www.lgych.com/cnbd/
显示验证码
没有账号? 注册  忘记密码?