Black Label Society Live at the Club Nokia in Los Angeles 2013《HDTV TS 12.5G》

[视频信息]
视频编码: MPG2 - 内置 FFmpeg 解码器(mpeg2video)
输入格式: MPG2(12 bits)
输入尺寸: 1920 × 1080(1.78:1)
输出格式: NV12(12 bits)
输出尺寸: 1920 × 1080(1.78:1)
帧率: 29.97
BitRate: 65000 kbps

[音频信息]
音频编码: Dolby AC3(0x2000) - 内置 FFmpeg 解码器(ac3)
采样率: 48000 -> 48000 Hz
位率: 0 -> 16 位
声道数: 6 -> 2 声道
Bitrate: 384 kbps

General
ID : 1 (0x1)
Complete name : Z:\Black Label Society Live at the Club Nokia in Los Angeles 2013 1080i HDTV DD5.1 MPEG2-TrollHD.ts\Black Label Society Live at the Club Nokia in Los Angeles 2013 1080i HDTV DD5.1 MPEG2-TrollHD.ts
Format : MPEG-TS
File size : 12.6 GiB
Duration : 1 h 40 min
Overall bit rate mode : Variable
Overall bit rate : 17.9 Mb/s

Video
ID : 617 (0x269)
Menu ID : 1 (0x1)
Format : MPEG Video
Format version : Version 2
Format profile : Main@High
Format settings : CustomMatrix / BVOP
Format settings, BVOP : Yes
Format settings, Matrix : Custom
Format settings, GOP : M=3, N=15
Format settings, picture struc : Frame
Codec ID : 2
Duration : 1 h 40 min
Bit rate mode : Variable
Bit rate : 16.6 Mb/s
Maximum bit rate : 65.0 Mb/s
Width : 1 920 pixels
Height : 1 080 pixels
Display aspect ratio : 16:9
Frame rate : 29.970 (30000/1001) FPS
Color space : YUV
Chroma subsampling : 4:2:0
Bit depth : 8 bits
Scan type : Interlaced
Scan order : Top Field First
Compression mode : Lossy
Bits/(Pixel*Frame) : 0.268
Time code of first frame : 00:00:00;00
Time code source : Group of pictures header
GOP, Open/Closed : Open
GOP, Open/Closed of first fram : Closed
Stream size : 11.7 GiB (93%)

Audio
ID : 616 (0x268)
Menu ID : 1 (0x1)
Format : AC-3
Format/Info : Audio Coding 3
Commercial name : Dolby Digital
Codec ID : 129
Duration : 1 h 40 min
Bit rate mode : Constant
Bit rate : 384 kb/s
Channel(s) : 6 channels
Channel layout : L R C LFE Ls Rs
Sampling rate : 48.0 kHz
Frame rate : 31.250 FPS (1536 SPF)
Compression mode : Lossy
Delay relative to video : 22 ms
Stream size : 276 MiB (2%)
Language : English
Service kind : Complete Main

Text #1
ID : 617 (0x269)-CC1
Menu ID : 1 (0x1)
Format : EIA-608
Muxing mode : A/53 / DTVCC Transport
Muxing mode, more info : Muxed in Video #1
Duration : 1 h 40 min
Bit rate mode : Constant
Stream size : 0.00 Byte (0%)
CaptionServiceName : CC1

Text #2
ID : 617 (0x269)-1
Menu ID : 1 (0x1)
Format : EIA-708
Muxing mode : A/53 / DTVCC Transport
Muxing mode, more info : Muxed in Video #1
Duration : 1 h 40 min
Bit rate mode : Constant
Stream size : 0.00 Byte (0%)

 

资源下载此资源下载价格为10金币,VIP免费,请先
所有资源都在百度网盘,如有链接失效、解压错误等、请联系管理微信:aimuvv
资源下载
下载价格10 金币
VIP免费
所有资源都在百度网盘,如有链接失效、解压错误等、请联系管理微信:aimuvv

原文链接:https://www.lgych.com/44050.html,转载请注明出处。

0

评论92

请先

  1. 好資源非常感謝!
    tclee 2022-03-18 0
  2. 多谢楼主主分享,谢谢
    jj871207 2022-03-21 0
  3. 多谢分享好资源
    jj871017 2022-03-21 0
  4. 多谢分享好资源
    stef2 2022-03-23 0
  5. 谢谢分享
    Biggoxie 2022-04-01 0
  6. 谢谢分享
    awccn8888 2022-06-16 0
  7. 狮王
    hym9711 2022-07-01 0
  8. 多谢分享
    CSLancelot 2022-07-01 0
  9. 精彩,感谢分享
    andy919 2022-07-02 0
  10. 感谢分享演唱会感谢分享演唱会感谢分享演唱会感谢分享演唱会感谢分享演唱会感谢分享演唱会
    油甘柠檬茶 2022-07-11 0
  11. 谢谢分享!
    user_zbz 4周前 0
  12. 多谢分享好资源!
    wo94ty 3周前 0
1 3 4 5
华语蓝光合集 252部11T资源终极收藏!支持硬盘拷贝:https://www.lgych.com/cnbd/
显示验证码
没有账号? 注册  忘记密码?