Devin Townsend Project - Ocean Machine Plovdiv 2018《Remux MKV 17.7G》

[视频信息]
视频编码: AVC1 - 内置 FFmpeg 解码器(h264, Thread Frame)
输入格式: AVC1(24 bits)
输入尺寸: 1920 × 1080(1.78:1)
输出格式: NV12(12 bits)
输出尺寸: 1920 × 1080(1.78:1)
帧率: 29.97
BitRate: 未知

[音频信息]
音频编码: DTS(0x2001) - FFmpegMininum64.dll(dca)
采样率: 48000 -> 48000 Hz
位率: 24 -> 16 位
声道数: 6 -> 2 声道
Bitrate: 1509 kbps

General
Unique ID : 244460630910551553859896243281984464686 (0xB7E967A974B9A55902A5216C822FA72E)
Complete name : Z:\下载文件\115下载8\DEV-2018-17.7\Devin Townsend Project - Ocean Machine Plovdiv.2018.BDRip1080p.mkv\Devin Townsend Project - Ocean Machine Plovdiv.2018.BDRip1080p.mkv
Format : Matroska
Format version : Version 2
File size : 17.7 GiB
Duration : 2 h 52 min
Overall bit rate mode : Variable
Overall bit rate : 14.7 Mb/s
Movie name : Devin Townsend Project - Ocean Machine: Plovdiv.2018.BDRip1080p @ rutracker.org
Encoded date : UTC 2018-07-13 13:34:17
Writing application : mkvmerge v22.0.0 ('At The End Of The World') 64-bit
Writing library : libebml v1.3.5 + libmatroska v1.4.8

Video
ID : 1
Format : AVC
Format/Info : Advanced Video Codec
Format profile : High@L4.1
Format settings : CABAC / 4 Ref Frames
Format settings, CABAC : Yes
Format settings, Reference fra : 4 frames
Codec ID : V_MPEG4/ISO/AVC
Duration : 2 h 52 min
Bit rate : 11.5 Mb/s
Width : 1 920 pixels
Height : 1 080 pixels
Display aspect ratio : 16:9
Frame rate mode : Constant
Frame rate : 29.970 (30000/1001) FPS
Color space : YUV
Chroma subsampling : 4:2:0
Bit depth : 8 bits
Scan type : Progressive
Bits/(Pixel*Frame) : 0.185
Stream size : 13.8 GiB (78%)
Title : anbelk27 @ rutracker.org
Writing library : x264 core 155 r2901 7d0ff22
Encoding settings : cabac=1 / ref=4 / deblock=1:-1:-2 / analyse=0x3:0x133 / me=umh / subme=11 / psy=1 / psy_rd=1.15:0.05 / mixed_ref=1 / me_range=32 / chroma_me=1 / trellis=2 / 8x8dct=1 / cqm=0 / deadzone=21,11 / fast_pskip=1 / chroma_qp_offset=-3 / threads=6 / lookahead_threads=1 / sliced_threads=0 / nr=0 / decimate=1 / interlaced=0 / bluray_compat=0 / constrained_intra=0 / bframes=8 / b_pyramid=2 / b_adapt=2 / b_bias=0 / direct=3 / weightb=1 / open_gop=0 / weightp=2 / keyint=300 / keyint_min=29 / scenecut=50 / intra_refresh=0 / rc_lookahead=100 / rc=2pass / mbtree=1 / bitrate=11500 / ratetol=1.0 / qcomp=0.60 / qpmin=0 / qpmax=69 / qpstep=4 / cplxblur=20.0 / qblur=0.5 / vbv_maxrate=50000 / vbv_bufsize=62500 / nal_hrd=none / filler=0 / ip_ratio=1.40 / aq=1:1.00
Default : Yes
Forced : No

Audio #1
ID : 2
Format : DTS
Format/Info : Digital Theater Systems
Codec ID : A_DTS
Duration : 2 h 51 min
Bit rate mode : Constant
Bit rate : 1 509 kb/s
Channel(s) : 6 channels
Channel layout : C L R Ls Rs LFE
Sampling rate : 48.0 kHz
Frame rate : 93.750 FPS (512 SPF)
Bit depth : 24 bits
Compression mode : Lossy
Stream size : 1.81 GiB (10%)
Title : DTS 5.1 @ 24 bit
Default : Yes
Forced : No

Audio #2
ID : 3
Format : FLAC
Format/Info : Free Lossless Audio Codec
Codec ID : A_FLAC
Duration : 2 h 51 min
Bit rate mode : Variable
Bit rate : 1 730 kb/s
Channel(s) : 2 channels
Channel layout : L R
Sampling rate : 48.0 kHz
Frame rate : 11.719 FPS (4096 SPF)
Bit depth : 24 bits
Compression mode : Lossless
Stream size : 2.08 GiB (12%)
Title : FLAC 2.0 @ 24 bit
Writing library : libFLAC 1.2.1 (UTC 2007-09-17)
Default : No
Forced : No

Menu
00:00:00.000 : en: 01. Preamble
00:01:50.877 : en: 02. Truth
00:06:26.119 : en: 03. Stormbending
00:12:27.913 : en: 04. Om
00:19:15.687 : en: 05. Failure
00:25:42.173 : en: 06. By Your Command
00:34:27.398 : en: 07. Gaia
00:41:30.588 : en: 08. Deadhead
00:49:53.991 : en: 09. Canada
00:57:10.426 : en: 10. Bad Devil
01:02:57.306 : en: 11. Higher
01:13:16.792 : en: 12. A Simple Lullaby
01:21:35.523 : en: 13. Deep Peace
01:32:40.154 : en: 14. Seventh Wave
01:39:38.372 : en: 15. Life
01:44:13.847 : en: 16. Night
01:49:03.870 : en: 17. Hide Nowhere
01:54:36.035 : en: 18. Sister
01:57:19.032 : en: 19. 3 A.M.
01:58:46.452 : en: 20. Voices in the Fan
02:03:22.828 : en: 21. Greetings
02:06:17.970 : en: 22. Regulator
02:11:41.159 : en: 23. Funeral
02:19:05.003 : en: 24. Bastard
02:29:40.137 : en: 25. The Death of Music
02:40:27.985 : en: 26. Thing Beyond Things
02:47:10.420 : en: 27. Credits

资源下载
下载价格10 金币
所有资源都在百度网盘,如有链接失效、解压错误等、请联系管理微信:lgychcom
原文链接:https://www.lgych.com/44354.html,转载请注明出处。
0

评论180

请先
  1. 非常棒的资源fsk
    2023-01-16 0
  2. 谢谢楼主分享q9g
    2023-01-16 0
  3. 不错quf
    2023-01-16 0
  4. 感谢分享jnw
    2023-01-16 0
  5. 很棒的资源。谢谢bk3
    2023-01-16 0
  6. 谢谢分享u04
    2023-01-16 0
  7. 不错9go
    2023-01-16 0
  8. 感谢分享q7x
    2023-01-16 0
  9. 很棒的资源。谢谢7fa
    2023-01-16 0
  10. 非常棒的资源frd
    2023-01-16 0
  11. 不错yaq
    2023-01-16 0
  12. 支持发展越来越好gip
    2023-01-18 0
  13. 感谢分享!
    sadmoonz 2023-01-18 0
  14. hgfg
    189邮箱 2023-01-19 0
  15. 谢谢分享
    qwe1230081 2023-01-24 0
  16. 很棒的资源bde
    2周前 0
  17. 非常感谢fdk
    2周前 0
  18. 非常感谢m59
    2周前 0
  19. 谢谢分享w7f
    2周前 0
  20. 很棒的资源x39
    2周前 0
1 7 8 9
江惠 - 2013镜花水月演唱会LIVE(DVD/ISO/7.19G)
江惠 - 2013镜花水月演唱会LIVE(DVD/ISO/7.19G)
3分钟前 有人购买 去瞅瞅看
显示验证码
没有账号?注册  忘记密码?