埃里克·克莱普顿音乐会 Eric Clapton - The Lady In The Balcony Lockdown Sessions 2021 2160p UHD HEVC 4K《Remux MKV 50.2G》

[视频信息]
视频编码: HVC1
输入格式: NV12(12 bits)
输入尺寸: 3840 × 2160(1.78:1)
输出格式: NV12(12 bits)
输出尺寸: 3840 × 2160(1.78:1)
帧率: 24
BitRate: 未知

[音频信息]
音频编码: TrueHD(0xeb27cec4) - FFmpegMininum64.dll(truehd)
采样率: 48000 -> 48000 Hz
位率: 0 -> 16 位
声道数: 8 -> 2 声道
Bitrate: 0 kbps

General
Unique ID : 128450904910659836182565015866971804800 (0x60A2BE91FD0E505B6F4FC7D021E85480)
Complete name : Z:\Eric Clapton - The Lady In The Balcony Lockdown Sessions 2021 2160p UHD BluRay REMUX HEVC TrueHD Atmos 7.1-Kenobi.mkv
Format : Matroska
Format version : Version 4
File size : 50.3 GiB
Duration : 1 h 17 min
Overall bit rate mode : Variable
Overall bit rate : 93.3 Mb/s
Movie name : Eric Clapton: The Lady In The Balcony: Lockdown Sessions (2021)
Encoded date : UTC 2021-12-26 05:55:02
Writing application : mkvmerge v63.0.0 ('Everything') 64-bit
Writing library : libebml v1.4.2 + libmatroska v1.6.4
TMDB : tv/883865

Video
ID : 1
Format : HEVC
Format/Info : High Efficiency Video Coding
Format profile : Main 10@L5.1@High
HDR format : SMPTE ST 2086, HDR10 compatible
Codec ID : V_MPEGH/ISO/HEVC
Duration : 1 h 17 min
Bit rate : 87.9 Mb/s
Width : 3 840 pixels
Height : 2 160 pixels
Display aspect ratio : 16:9
Frame rate mode : Constant
Frame rate : 24.000 FPS
Color space : YUV
Chroma subsampling : 4:2:0 (Type 2)
Bit depth : 10 bits
Bits/(Pixel*Frame) : 0.442
Stream size : 47.4 GiB (94%)
Title : MPEG-H HEVC Video / 89519 kbps / 2160p / 24 fps / 16:9 / Main 10 @ Level 5.1 @ High / 4:2:0 / 10 bits / 1000nits / HDR10 / BT.2020
Writing library : ATEME Titan File 3.9.6 (4.9.6.1)
Language : zxx
Default : Yes
Forced : No
Color range : Limited
Color primaries : BT.2020
Transfer characteristics : PQ
Matrix coefficients : BT.2020 non-constant
Mastering display color primar : BT.2020
Mastering display luminance : min: 0.0001 cd/m2, max: 1000 cd/m2
Maximum Content Light Level : 750 cd/m2
Maximum Frame-Average Light Le : 112 cd/m2

Audio #1
ID : 2
Format : MLP FBA 16-ch
Format/Info : Meridian Lossless Packing FBA with 16-channel presentation
Commercial name : Dolby TrueHD with Dolby Atmos
Codec ID : A_TRUEHD
Duration : 1 h 17 min
Bit rate mode : Variable
Bit rate : 4 678 kb/s
Maximum bit rate : 6 201 kb/s
Channel(s) : 8 channels
Channel layout : L R C LFE Ls Rs Lb Rb
Sampling rate : 48.0 kHz
Frame rate : 1 200.000 FPS (40 SPF)
Compression mode : Lossless
Stream size : 2.52 GiB (5%)
Title : Dolby TrueHD/Atmos Audio / 4676 kbps / 7.1+11 objects / 48 kHz / 24-bit
Language : English
Default : Yes
Forced : No
Number of dynamic objects : 11
Bed channel count : 1 channel
Bed channel configuration : LFE

Audio #2
ID : 3
Format : AC-3
Format/Info : Audio Coding 3
Commercial name : Dolby Digital
Codec ID : A_AC3
Duration : 1 h 17 min
Bit rate mode : Constant
Bit rate : 640 kb/s
Channel(s) : 6 channels
Channel layout : L R C LFE Ls Rs
Sampling rate : 48.0 kHz
Frame rate : 31.250 FPS (1536 SPF)
Compression mode : Lossy
Stream size : 353 MiB (1%)
Title : Compatibility Track / Dolby Digital Audio / 640 kbps / 5.1-EX / 48 kHz / 640 kbps
Language : English
Service kind : Complete Main
Default : No
Forced : No

Menu
00:00:00.000 : en:Introduction
00:00:24.000 : en:Nobody Knows You When You're Down And Out
00:03:30.167 : en:Golden Ring
00:07:06.625 : en:Black Magic Woman
00:11:28.167 : en:Man of the World
00:14:53.917 : en:Kerry
00:17:24.500 : en:After Midnight
00:22:31.958 : en:Bell Bottom Blues
00:27:33.208 : en:Key to the Highway
00:31:11.500 : en:River of Tears
00:38:31.042 : en:Rock Me Baby
00:43:06.000 : en:Believe in Life
00:48:15.375 : en:Going Down Slow
00:52:54.583 : en:Layla
00:58:18.958 : en:Tears in Heaven
01:03:07.125 : en:Long Distance Call
01:07:21.167 : en:Bad Boy
01:11:04.167 : en:Got My Mojo Working
01:15:43.125 : en:Conclusion - Believe in Life

资源下载
下载价格20 金币
VIP免费
所有资源都在百度网盘,如有链接失效、解压错误等、请联系管理微信:lgychcom
原文链接:https://www.lgych.com/44580.html,转载请注明出处。
2

评论247

请先
  1. 谢谢分享
    tiantian 2024-01-21 0
  2. 谢谢分享谢谢分享
    languang11 2024-01-21 0
  3. 谢谢分享
    adsf517 2周前 0
  4. 很棒的资源2sz
    1周前 0
  5. 谢谢分享fhb
    1周前 0
1 11 12 13
李克勤 - 弦续 李克勤•港乐演唱会 Hacken Lee X HKPhil Concert 2023 2BD+2CD [BDISO 2BD 64.8GB]
李克勤 - 弦续 李克勤•港乐演唱会 Hacken Lee X HKPhil Concert 2023 2BD+2CD [BDISO 2BD 64.8GB]
3分钟前 有人购买 去瞅瞅看
本站资源均可通过签到或者评论免费获取,被一些朋友批量注册账号玩坏了;关闭自由注册,后面需要注册账号的朋友,请自助购买邀请码注册
显示验证码
没有账号?注册  忘记密码?