泰勒.斯威夫特 1989 悉尼演唱会 4K重制版简英双语 Taylor Swift The 1989 World Tour Live 2015《WEB-DL MKV 13.05G》

简介:
2015年因事耽搁未能带女友参加上海场,算是弥补一下遗憾了。
视频、音频、字幕均取自网络,本人只是做了整合,侵删。

曲目:
1《Welcome to New York》
2《New Romantics》
3《Blank Space》
4《I Knew You Were Trouble.》
5《I Wish You Would》
6《How You Get The Girl》
7《I Know Places》
8《All You Had to Do Was Stay》
9《You Are in Love》
10《Clean》
11《Love Story》
12《Style》
13《This Love》
14《Bad Blood》
15《We Are Never Ever Getting Back Together》
16《Enchanted》 &《Wildest Dreams》
17《Out of the Woods》
18《Shake It Off》

详情:
Format : Matroska
Format version : Version 4
File size : 13.0 GiB
Duration : 2 h 11 min
Overall bit rate : 14.2 Mb/s
Encoded date : UTC 2021-09-23 01:41:27
Writing application : mkvmerge v51.0.0 ('I Wish') 64-bit
Writing library : libebml v1.4.0 + libmatroska v1.6.2
Cover : Yes
Attachments : cover.jpg

Video
ID : 1
Format : VP9
Codec ID : V_VP9
Duration : 2 h 11 min
Bit rate : 13.8 Mb/s
Width : 3 840 pixels
Height : 2 160 pixels
Display aspect ratio : 16:9
Frame rate mode : Constant
Frame rate : 29.970 (30000/1001) FPS
Color space : YUV
Bits/(Pixel*Frame) : 0.055
Stream size : 12.7 GiB (97%)
Language : English
Default : Yes
Forced : No
Color range : Limited
Color primaries : BT.709
Transfer characteristics : BT.709
Matrix coefficients : BT.709

Audio
ID : 2
Format : AC-3
Format/Info : Audio Coding 3
Commercial name : Dolby Digital
Codec ID : A_AC3
Duration : 2 h 11 min
Bit rate mode : Constant
Bit rate : 384 kb/s
Channel(s) : 6 channels
Channel layout : L R C LFE Ls Rs
Sampling rate : 48.0 kHz
Frame rate : 31.250 FPS (1536 SPF)
Compression mode : Lossy
Stream size : 362 MiB (3%)
Language : English
Service kind : Complete Main
Default : Yes
Forced : No

Text
ID : 3
Format : UTF-8
Codec ID : S_TEXT/UTF8
Codec ID/Info : UTF-8 Plain Text
Duration : 2 h 6 min
Bit rate : 116 b/s
Count of elements : 1664
Stream size : 108 KiB (0%)
Language : Chinese
Default : Yes
Forced : No

资源下载
下载价格10 金币
VIP免费
所有资源都在百度网盘,如有链接失效、解压错误等、请联系管理微信:lgychcom
原文链接:https://www.lgych.com/44670.html,转载请注明出处。
6

评论381

请先
  1. 找了好久才找到这么全的网站!感谢分享
    萤火虫2021已购买 55分钟前 0
1 18 19 20
林子祥 & 陈奕迅 - 903拉阔音乐会 拉阔压轴 2001 DTS版 [DVD ISO 5.68G]
林子祥 & 陈奕迅 - 903拉阔音乐会 拉阔压轴 2001 DTS版 [DVD ISO 5.68G]
刚刚 有人购买 去瞅瞅看
本站资源均可通过签到或者评论免费获取,被一些朋友批量注册账号玩坏了;关闭自由注册,后面需要注册账号的朋友,请自助购买邀请码注册
显示验证码
没有账号?注册  忘记密码?