Lindsey Buckingham With Special Guest Stevie Nicks 2003《Remux MKV 10.1》

[视频信息]
视频编码: AVC1 - 内置 FFmpeg 解码器(h264, Thread Frame)
输入格式: AVC1(24 bits)
输入尺寸: 1920 × 1080(1.78:1)
输出格式: NV12(12 bits)
输出尺寸: 1920 × 1080(1.78:1)
帧率: 29.97
BitRate: 未知

[音频信息]
音频编码: DTS(0x2001) - FFmpegMininum64.dll(dca)
采样率: 48000 -> 48000 Hz
位率: 0 -> 16 位
声道数: 6 -> 2 声道
Bitrate: 1509 kbps

General
Unique ID : 329064331007340522890631221346373354683 (0xF78F7C208CE4312BF84B87B92D2244BB)
Complete name : W:\Lindsey Buckingham With Special Guest Stevie Nicks 2003 1080i Blu-Ray DTS x264.mkv\Lindsey Buckingham With Special Guest Stevie Nicks 2003 1080i Blu-Ray DTS x264.mkv
Format : Matroska
Format version : Version 2
File size : 10.4 GiB
Duration : 58 min 26 s
Overall bit rate mode : Variable
Overall bit rate : 25.5 Mb/s
Encoded date : UTC 2017-03-30 09:31:50
Writing application : MakeMKV v1.10.5 win(x64-release)
Writing library : libmakemkv v1.10.5 (1.3.3/1.4.4) win(x64-release)

Video
ID : 1
ID in the original source medi : 4113 (0x1011)
Format : AVC
Format/Info : Advanced Video Codec
Format profile : High@L4.1
Format settings : CABAC / 4 Ref Frames
Format settings, CABAC : Yes
Format settings, Reference fra : 4 frames
Format settings, GOP : M=3, N=25
Codec ID : V_MPEG4/ISO/AVC
Duration : 58 min 26 s
Bit rate mode : Variable
Bit rate : 24.0 Mb/s
Maximum bit rate : 38.0 Mb/s
Width : 1 920 pixels
Height : 1 080 pixels
Display aspect ratio : 16:9
Frame rate mode : Variable
Frame rate : 59.940 (60000/1001) FPS
Original frame rate : 29.970 (30000/1001) FPS
Standard : NTSC
Color space : YUV
Chroma subsampling : 4:2:0
Bit depth : 8 bits
Scan type : Interlaced
Scan type, store method : Separated fields
Scan order : Top Field First
Bits/(Pixel*Frame) : 0.193
Stream size : 9.79 GiB (94%)
Language : English
Default : No
Forced : No
Color range : Limited
Original source medium : Blu-ray

Audio
ID : 2
ID in the original source medi : 4352 (0x1100)
Format : DTS
Format/Info : Digital Theater Systems
Codec ID : A_DTS
Duration : 58 min 26 s
Bit rate mode : Constant
Bit rate : 1 509 kb/s
Channel(s) : 6 channels
Channel layout : C L R Ls Rs LFE
Sampling rate : 48.0 kHz
Frame rate : 93.750 FPS (512 SPF)
Bit depth : 24 bits
Compression mode : Lossy
Stream size : 631 MiB (6%)
Title : Surround 5.1
Language : English
Default : Yes
Forced : No
Original source medium : Blu-ray

Menu
00:00:00.000 : en:Chapter 01
00:00:17.517 : en:Chapter 02
00:05:52.552 : en:Chapter 03
00:09:38.778 : en:Chapter 04
00:13:25.571 : en:Chapter 05
00:20:17.849 : en:Chapter 06
00:25:17.916 : en:Chapter 07
00:30:39.470 : en:Chapter 08
00:36:42.700 : en:Chapter 09
00:41:12.603 : en:Chapter 10
00:47:28.312 : en:Chapter 11
00:53:21.331 : en:Chapter 12

 

资源下载
下载价格10 金币
VIP免费
所有资源都在百度网盘,如有链接失效、解压错误等、请联系管理微信:lgychcom
原文链接:https://www.lgych.com/45194.html,转载请注明出处。
0

评论202

请先
  1. 感谢分享
    luoqi525 3周前 0
  2. 谢谢分享ovx
    1周前 0
1 9 10 11
飞图 C-301 超白金歌星演唱会 [LD转DVD] [DVD ISO 4.04G+3.01G]
飞图 C-301 超白金歌星演唱会 [LD转DVD] [DVD ISO 4.04G+3.01G]
刚刚 有人购买 去瞅瞅看
本站资源均可通过签到或者评论免费获取,被一些朋友批量注册账号玩坏了;关闭自由注册,后面需要注册账号的朋友,请自助购买邀请码注册
显示验证码
没有账号?注册  忘记密码?