Subway to Sally - Schlachthof Bastard Tour 2008《BDrip MKV 7.65G》

[视频信息]
视频编码: AVC1 - 内置 FFmpeg 解码器(h264, Thread Frame)
输入格式: AVC1(24 bits)
输入尺寸: 1920 × 1080(1.78:1)
输出格式: NV12(12 bits)
输出尺寸: 1920 × 1080(1.78:1)
帧率: 25
BitRate: 未知

[音频信息]
音频编码: AC3(0x2000) - 内置 FFmpeg 解码器(ac3)
采样率: 48000 -> 48000 Hz
位率: 0 -> 16 位
声道数: 6 -> 2 声道
Bitrate: 448 kbps

General
Unique ID : 209861025804066588532790599282263515884 (0x9DE1C36C951E8C45A7CA72CD584EE2EC)
Complete name : J:\Subway to Sally - Schlachthof Bastard Tour 2008 1080p.mkv\Subway to Sally - Schlachthof Bastard Tour 2008 1080p.mkv
Format : Matroska
Format version : Version 2
File size : 7.65 GiB
Duration : 1 h 57 min
Overall bit rate : 9 287 kb/s
Encoded date : UTC 2013-02-20 00:46:01
Writing application : mkvmerge v5.7.0 ('The Whirlwind') built on Jul 8 2012 20:08:51
Writing library : libebml v1.2.3 + libmatroska v1.3.0

Video
ID : 1
Format : AVC
Format/Info : Advanced Video Codec
Format profile : High@L4.1
Format settings : CABAC / 4 Ref Frames
Format settings, CABAC : Yes
Format settings, Reference fra : 4 frames
Codec ID : V_MPEG4/ISO/AVC
Duration : 1 h 57 min
Bit rate : 8 838 kb/s
Width : 1 920 pixels
Height : 1 080 pixels
Display aspect ratio : 16:9
Frame rate mode : Constant
Frame rate : 25.000 FPS
Color space : YUV
Chroma subsampling : 4:2:0
Bit depth : 8 bits
Scan type : Progressive
Bits/(Pixel*Frame) : 0.170
Stream size : 7.13 GiB (93%)
Writing library : x264 core 129 r2245 bc13772
Encoding settings : cabac=1 / ref=4 / deblock=1:0:0 / analyse=0x3:0x133 / me=umh / subme=8 / psy=1 / psy_rd=1.00:0.00 / mixed_ref=1 / me_range=16 / chroma_me=1 / trellis=1 / 8x8dct=1 / cqm=0 / deadzone=21,11 / fast_pskip=0 / chroma_qp_offset=-2 / threads=12 / lookahead_threads=2 / sliced_threads=0 / nr=0 / decimate=1 / interlaced=0 / bluray_compat=0 / constrained_intra=0 / bframes=3 / b_pyramid=2 / b_adapt=1 / b_bias=0 / direct=1 / weightb=1 / open_gop=0 / weightp=2 / keyint=250 / keyint_min=25 / scenecut=40 / intra_refresh=0 / rc_lookahead=40 / rc=2pass / mbtree=1 / bitrate=8838 / ratetol=1.0 / qcomp=0.60 / qpmin=0 / qpmax=69 / qpstep=4 / cplxblur=20.0 / qblur=0.5 / ip_ratio=1.40 / aq=1:1.00
Language : English
Default : Yes
Forced : No

Audio
ID : 2
Format : AC-3
Format/Info : Audio Coding 3
Commercial name : Dolby Digital
Codec ID : A_AC3
Duration : 1 h 57 min
Bit rate mode : Constant
Bit rate : 448 kb/s
Channel(s) : 6 channels
Channel layout : L R C LFE Ls Rs
Sampling rate : 48.0 kHz
Frame rate : 31.250 FPS (1536 SPF)
Compression mode : Lossy
Stream size : 378 MiB (5%)
Service kind : Complete Main
Default : Yes
Forced : No

Menu
00:00:00.000 : en:00:00:00.000
00:01:49.440 : en:00:01:49.440
00:06:17.280 : en:00:06:17.280
00:10:42.720 : en:00:10:42.720
00:13:56.640 : en:00:13:56.640
00:18:52.320 : en:00:18:52.320
00:23:38.880 : en:00:23:38.880
00:28:14.880 : en:00:28:14.880
00:33:49.440 : en:00:33:49.440
00:37:40.320 : en:00:37:40.320
00:42:43.680 : en:00:42:43.680
00:47:05.280 : en:00:47:05.280
00:51:27.840 : en:00:51:27.840
00:55:36.000 : en:00:55:36.000
00:58:54.720 : en:00:58:54.720
01:05:08.640 : en:01:05:08.640
01:10:32.160 : en:01:10:32.160
01:14:09.120 : en:01:14:09.120
01:18:59.040 : en:01:18:59.040
01:26:35.520 : en:01:26:35.520
01:31:30.240 : en:01:31:30.240
01:37:27.360 : en:01:37:27.360
01:41:52.320 : en:01:41:52.320
01:46:48.960 : en:01:46:48.960
01:52:40.800 : en:01:52:40.800

资源下载
下载价格10 金币
VIP免费
所有资源都在百度网盘,如有链接失效、解压错误等、请联系管理微信:lgychcom
原文链接:https://www.lgych.com/45769.html,转载请注明出处。
0

评论208

请先
  1. 谢谢分享c1j
    2023-01-16 0
  2. 谢谢楼主无私奉献ujz
    2023-01-16 0
  3. 谢谢分享rij
    2023-01-16 0
  4. 谢谢楼主分享z30
    2023-01-17 0
  5. 谢谢分享2l0
    2023-01-17 0
  6. 很棒的资源。谢谢g9b
    2023-01-18 0
  7. 谢谢楼主好资源感谢分享
    languang11 3周前 0
  8. 谢谢vwd
    6天前 0
1 9 10 11
安妮 索菲.穆特 勃拉姆斯 小提琴奏鸣曲Anne Sophie Mutter Brahms - The Violin Sonatas 2010《ISO 30.5G》
安妮 索菲.穆特 勃拉姆斯 小提琴奏鸣曲Anne Sophie Mutter Brahms - The Violin Sonatas 2010《ISO 30.5G》
3分钟前 有人购买 去瞅瞅看
本站资源均可通过签到或者评论免费获取,被一些朋友批量注册账号玩坏了;关闭自由注册,后面需要注册账号的朋友,请自助购买邀请码注册
显示验证码
没有账号?注册  忘记密码?