Adam by Eve:动画现场演唱会 Adam by Eve: A Live in Animation 2022 《WEB-DL MKV 3.27G》

[视频信息]
视频编码: AVC1 - Native D3D9 DXVA Decoder(VLD) - Intel(R) UHD Graphics 770
输入格式: AVC1(24 bits)
输入尺寸: 1920 × 1080(1.78:1)
输出格式: dxva
输出尺寸: 1920 × 1080(1.78:1)
帧率: 24
BitRate: 未知

[音频信息]
音频编码: DD+(0x2000) - 内置 FFmpeg 解码器(eac3)
采样率: 48000 -> 48000 Hz
位率: 0 -> 16 位
声道数: 6 -> 2 声道
Bitrate: 640 kbps

这部影片由前沿艺术家Eve(热播动画 咒术回战  OP演唱者)创作,灵感来源于亚当和夏娃的故事,将动画、真人表演和音乐融为一体,带给人梦幻般的音乐体验。

本片结合真人演出、3D 电脑绘图及 2D 动画,搭配鲜明华丽的视觉效果,娓娓诉说一则神秘的故事。高中生亚纪亲眼目睹她的好友多纪消失,于是出发寻找她的下落,却意外来到神秘的“独眼”创造出的诡谲世界。亚纪顺著多纪的声音指引,踏进既非梦境、亦非现实的涩谷区,在这里,她将会发现什么样的秘密?

General
Unique ID : 302881504886723582670735551199472013611 (0xE3DCDB21EA0EDBB2D4515B54111C512B)
Complete name : Y:\Adam.by.Eve.A.Live.in.Animation.2022.mkv
Format : Matroska
Format version : Version 4
File size : 3.27 GiB
Duration : 58 min 59 s
Overall bit rate mode : Variable
Overall bit rate : 7 945 kb/s
Movie name : Adam.by.Eve.A.Live.in.Animation.2022.1080p.NF.WEB-DL.DDP5.1.x264-playWEB
Encoded date : UTC 2022-03-15 08:33:55
Writing application : mkvmerge v44.0.0 ('Domino') 64-bit
Writing library : libebml v1.3.10 + libmatroska v1.5.2

Video
ID : 1
Format : AVC
Format/Info : Advanced Video Codec
Format profile : High@L4
Format settings : CABAC / 4 Ref Frames
Format settings, CABAC : Yes
Format settings, Reference fra : 4 frames
Codec ID : V_MPEG4/ISO/AVC
Duration : 58 min 58 s
Bit rate mode : Variable
Bit rate : 7 299 kb/s
Maximum bit rate : 20.0 Mb/s
Width : 1 920 pixels
Height : 1 080 pixels
Display aspect ratio : 16:9
Frame rate mode : Constant
Frame rate : 24.000 FPS
Color space : YUV
Chroma subsampling : 4:2:0
Bit depth : 8 bits
Scan type : Progressive
Bits/(Pixel*Frame) : 0.147
Stream size : 3.01 GiB (92%)
Writing library : x264 core 148 r2727 7d026e8
Encoding settings : cabac=1 / ref=4 / deblock=1:0:0 / analyse=0x3:0x111 / me=umh / subme=10 / psy=1 / psy_rd=1.00:0.00 / mixed_ref=1 / me_range=120 / chroma_me=1 / trellis=2 / 8x8dct=1 / cqm=0 / deadzone=21,11 / fast_pskip=1 / chroma_qp_offset=-2 / threads=8 / lookahead_threads=2 / sliced_threads=0 / nr=0 / decimate=1 / interlaced=0 / bluray_compat=0 / stitchable=1 / constrained_intra=0 / bframes=16 / b_pyramid=2 / b_adapt=2 / b_bias=0 / direct=3 / weightb=1 / open_gop=0 / weightp=2 / keyint=240 / keyint_min=121 / scenecut=0 / intra_refresh=0 / rc_lookahead=240 / rc=crf / mbtree=1 / crf=18.0 / qcomp=0.50 / qpmin=6 / qpmax=51 / qpstep=4 / vbv_maxrate=20000 / vbv_bufsize=25000 / crf_max=0.0 / nal_hrd=vbr / filler=0 / ip_ratio=1.40 / aq=1:0.80
Default : Yes
Forced : No

Audio
ID : 2
Format : E-AC-3
Format/Info : Enhanced AC-3
Commercial name : Dolby Digital Plus
Codec ID : A_EAC3
Duration : 58 min 59 s
Bit rate mode : Constant
Bit rate : 640 kb/s
Channel(s) : 6 channels
Channel layout : L R C LFE Ls Rs
Sampling rate : 48.0 kHz
Frame rate : 31.250 FPS (1536 SPF)
Compression mode : Lossy
Stream size : 270 MiB (8%)
Title : Japanese
Language : Japanese
Service kind : Complete Main
Default : Yes
Forced : No

Text #1
ID : 3
Format : UTF-8
Codec ID : S_TEXT/UTF8
Codec ID/Info : UTF-8 Plain Text
Duration : 58 min 41 s
Bit rate : 69 b/s
Count of elements : 783
Stream size : 29.8 KiB (0%)
Title : English
Language : English
Default : Yes
Forced : No

Text #2
ID : 4
Format : UTF-8
Codec ID : S_TEXT/UTF8
Codec ID/Info : UTF-8 Plain Text
Duration : 58 min 47 s
Bit rate : 81 b/s
Count of elements : 783
Stream size : 35.0 KiB (0%)
Title : Arabic
Language : Arabic
Default : No
Forced : No

Text #3
ID : 5
Format : UTF-8
Codec ID : S_TEXT/UTF8
Codec ID/Info : UTF-8 Plain Text
Duration : 58 min 47 s
Bit rate : 56 b/s
Count of elements : 787
Stream size : 24.4 KiB (0%)
Title : Chinese Simplified
Language : Chinese
Default : No
Forced : No

Text #4
ID : 6
Format : UTF-8
Codec ID : S_TEXT/UTF8
Codec ID/Info : UTF-8 Plain Text
Duration : 58 min 47 s
Bit rate : 57 b/s
Count of elements : 787
Stream size : 24.9 KiB (0%)
Title : Chinese Traditional
Language : Chinese
Default : No
Forced : No

Text #5
ID : 7
Format : UTF-8
Codec ID : S_TEXT/UTF8
Codec ID/Info : UTF-8 Plain Text
Duration : 58 min 47 s
Bit rate : 67 b/s
Count of elements : 787
Stream size : 29.2 KiB (0%)
Title : Croatian
Language : Croatian
Default : No
Forced : No

Text #6
ID : 8
Format : UTF-8
Codec ID : S_TEXT/UTF8
Codec ID/Info : UTF-8 Plain Text
Duration : 58 min 47 s
Bit rate : 64 b/s
Count of elements : 785
Stream size : 27.9 KiB (0%)
Title : Czech
Language : Czech
Default : No
Forced : No

Text #7
ID : 9
Format : UTF-8
Codec ID : S_TEXT/UTF8
Codec ID/Info : UTF-8 Plain Text
Duration : 58 min 47 s
Bit rate : 68 b/s
Count of elements : 784
Stream size : 29.3 KiB (0%)
Title : Danish
Language : Danish
Default : No
Forced : No

Text #8
ID : 10
Format : UTF-8
Codec ID : S_TEXT/UTF8
Codec ID/Info : UTF-8 Plain Text
Duration : 58 min 47 s
Bit rate : 63 b/s
Count of elements : 697
Stream size : 27.3 KiB (0%)
Title : Dutch
Language : Dutch
Default : No
Forced : No

Text #9
ID : 11
Format : UTF-8
Codec ID : S_TEXT/UTF8
Codec ID/Info : UTF-8 Plain Text
Duration : 53 min 30 s
Bit rate : 66 b/s
Count of elements : 651
Stream size : 26.1 KiB (0%)
Title : Finnish
Language : Finnish
Default : No
Forced : No

Text #10
ID : 12
Format : UTF-8
Codec ID : S_TEXT/UTF8
Codec ID/Info : UTF-8 Plain Text
Duration : 58 min 47 s
Bit rate : 72 b/s
Count of elements : 763
Stream size : 31.4 KiB (0%)
Title : French
Language : French
Default : No
Forced : No

Text #11
ID : 13
Format : UTF-8
Codec ID : S_TEXT/UTF8
Codec ID/Info : UTF-8 Plain Text
Duration : 58 min 47 s
Bit rate : 68 b/s
Count of elements : 729
Stream size : 29.5 KiB (0%)
Title : German
Language : German
Default : No
Forced : No

Text #12
ID : 14
Format : UTF-8
Codec ID : S_TEXT/UTF8
Codec ID/Info : UTF-8 Plain Text
Duration : 58 min 47 s
Bit rate : 120 b/s
Count of elements : 787
Stream size : 52.0 KiB (0%)
Title : Greek
Language : Greek
Default : No
Forced : No

Text #13
ID : 15
Format : UTF-8
Codec ID : S_TEXT/UTF8
Codec ID/Info : UTF-8 Plain Text
Duration : 58 min 47 s
Bit rate : 83 b/s
Count of elements : 787
Stream size : 36.0 KiB (0%)
Title : Hebrew
Language : Hebrew
Default : No
Forced : No

Text #14
ID : 16
Format : UTF-8
Codec ID : S_TEXT/UTF8
Codec ID/Info : UTF-8 Plain Text
Duration : 58 min 47 s
Bit rate : 67 b/s
Count of elements : 784
Stream size : 29.3 KiB (0%)
Title : Hungarian
Language : Hungarian
Default : No
Forced : No

Text #15
ID : 17
Format : UTF-8
Codec ID : S_TEXT/UTF8
Codec ID/Info : UTF-8 Plain Text
Duration : 58 min 47 s
Bit rate : 68 b/s
Count of elements : 787
Stream size : 29.6 KiB (0%)
Title : Indonesian
Language : Indonesian
Default : No
Forced : No

Text #16
ID : 18
Format : UTF-8
Codec ID : S_TEXT/UTF8
Codec ID/Info : UTF-8 Plain Text
Duration : 53 min 30 s
Bit rate : 75 b/s
Count of elements : 781
Stream size : 29.6 KiB (0%)
Title : Italian
Language : Italian
Default : No
Forced : No

Text #17
ID : 19
Format : UTF-8
Codec ID : S_TEXT/UTF8
Codec ID/Info : UTF-8 Plain Text
Duration : 58 min 40 s
Bit rate : 99 b/s
Count of elements : 929
Stream size : 42.8 KiB (0%)
Title : Japanese
Language : Japanese
Default : No
Forced : No

Text #18
ID : 20
Format : UTF-8
Codec ID : S_TEXT/UTF8
Codec ID/Info : UTF-8 Plain Text
Duration : 58 min 47 s
Bit rate : 71 b/s
Count of elements : 789
Stream size : 30.9 KiB (0%)
Title : Korean
Language : Korean
Default : No
Forced : No

Text #19
ID : 21
Format : UTF-8
Codec ID : S_TEXT/UTF8
Codec ID/Info : UTF-8 Plain Text
Duration : 58 min 47 s
Bit rate : 70 b/s
Count of elements : 784
Stream size : 30.3 KiB (0%)
Title : Malay
Language : Malay
Default : No
Forced : No

Text #20
ID : 22
Format : UTF-8
Codec ID : S_TEXT/UTF8
Codec ID/Info : UTF-8 Plain Text
Duration : 58 min 47 s
Bit rate : 66 b/s
Count of elements : 754
Stream size : 28.7 KiB (0%)
Title : Norwegian Bokmal
Language : Norwegian Bokmal
Default : No
Forced : No

Text #21
ID : 23
Format : UTF-8
Codec ID : S_TEXT/UTF8
Codec ID/Info : UTF-8 Plain Text
Duration : 58 min 47 s
Bit rate : 69 b/s
Count of elements : 787
Stream size : 29.9 KiB (0%)
Title : Polish
Language : Polish
Default : No
Forced : No

Text #22
ID : 24
Format : UTF-8
Codec ID : S_TEXT/UTF8
Codec ID/Info : UTF-8 Plain Text
Duration : 58 min 47 s
Bit rate : 64 b/s
Count of elements : 766
Stream size : 27.9 KiB (0%)
Title : Portuguese
Language : Portuguese
Default : No
Forced : No

Text #23
ID : 25
Format : UTF-8
Codec ID : S_TEXT/UTF8
Codec ID/Info : UTF-8 Plain Text
Duration : 58 min 47 s
Bit rate : 66 b/s
Count of elements : 781
Stream size : 28.5 KiB (0%)
Title : Brazilian Portuguese
Language : Portuguese
Default : No
Forced : No

Text #24
ID : 26
Format : UTF-8
Codec ID : S_TEXT/UTF8
Codec ID/Info : UTF-8 Plain Text
Duration : 58 min 47 s
Bit rate : 71 b/s
Count of elements : 763
Stream size : 30.9 KiB (0%)
Title : Romanian
Language : Romanian
Default : No
Forced : No

Text #25
ID : 27
Format : UTF-8
Codec ID : S_TEXT/UTF8
Codec ID/Info : UTF-8 Plain Text
Duration : 58 min 47 s
Bit rate : 99 b/s
Count of elements : 787
Stream size : 42.9 KiB (0%)
Title : Russian
Language : Russian
Default : No
Forced : No

Text #26
ID : 28
Format : UTF-8
Codec ID : S_TEXT/UTF8
Codec ID/Info : UTF-8 Plain Text
Duration : 53 min 30 s
Bit rate : 71 b/s
Count of elements : 779
Stream size : 28.1 KiB (0%)
Title : Spanish
Language : Spanish
Default : No
Forced : No

Text #27
ID : 29
Format : UTF-8
Codec ID : S_TEXT/UTF8
Codec ID/Info : UTF-8 Plain Text
Duration : 58 min 47 s
Bit rate : 66 b/s
Count of elements : 787
Stream size : 28.7 KiB (0%)
Title : European Spanish
Language : Spanish
Default : No
Forced : No

Text #28
ID : 30
Format : UTF-8
Codec ID : S_TEXT/UTF8
Codec ID/Info : UTF-8 Plain Text
Duration : 53 min 30 s
Bit rate : 76 b/s
Count of elements : 772
Stream size : 29.8 KiB (0%)
Title : Swedish
Language : Swedish
Default : No
Forced : No

Text #29
ID : 31
Format : UTF-8
Codec ID : S_TEXT/UTF8
Codec ID/Info : UTF-8 Plain Text
Duration : 58 min 47 s
Bit rate : 149 b/s
Count of elements : 787
Stream size : 64.5 KiB (0%)
Title : Thai
Language : Thai
Default : No
Forced : No

Text #30
ID : 32
Format : UTF-8
Codec ID : S_TEXT/UTF8
Codec ID/Info : UTF-8 Plain Text
Duration : 58 min 47 s
Bit rate : 67 b/s
Count of elements : 787
Stream size : 29.2 KiB (0%)
Title : Turkish
Language : Turkish
Default : No
Forced : No

Text #31
ID : 33
Format : UTF-8
Codec ID : S_TEXT/UTF8
Codec ID/Info : UTF-8 Plain Text
Duration : 58 min 47 s
Bit rate : 110 b/s
Count of elements : 787
Stream size : 47.7 KiB (0%)
Title : Ukrainian
Language : Ukrainian
Default : No
Forced : No

Text #32
ID : 34
Format : UTF-8
Codec ID : S_TEXT/UTF8
Codec ID/Info : UTF-8 Plain Text
Duration : 58 min 47 s
Bit rate : 99 b/s
Count of elements : 787
Stream size : 42.7 KiB (0%)
Title : Vietnamese
Language : Vietnamese
Default : No
Forced : No

 

资源下载
下载价格5 金币
VIP免费
所有资源都在百度网盘,如有链接失效、解压错误等、请联系管理微信:lgychcom
原文链接:https://www.lgych.com/50380.html,转载请注明出处。
0

评论167

请先
  1. 多谢分享一个
    lovers19762021 2023-01-22 0
  2. 非常感谢zxl
    3周前 0
  3. 谢谢9ka
    3周前 0
  4. 很棒的资源ckb
    3周前 0
  5. 谢谢分享hcg
    3周前 0
  6. 很棒的资源tz0
    3周前 0
  7. 很棒的资源1mr
    3周前 0
1 7 8 9
DTS 蓝光音乐示范演示碟测试 vol.10 DTS MUSIC DEMO Vol.10《BDMV 23.00GB》
DTS 蓝光音乐示范演示碟测试 vol.10 DTS MUSIC DEMO Vol.10《BDMV 23.00GB》
3分钟前 有人购买 去瞅瞅看
显示验证码
没有账号?注册  忘记密码?