The Pyongyang Concert 2008《BDrip MKV 8.79G》

[视频信息]
视频编码: AVC1 - Native D3D9 DXVA Decoder(VLD) - Intel(R) UHD Graphics 770
输入格式: AVC1(24 bits)
输入尺寸: 1920 × 1080(1.78:1)
输出格式: dxva
输出尺寸: 1920 × 1080(1.78:1)
帧率: 29.97
BitRate: 未知

[音频信息]
音频编码: DTS(0x2001) - FFmpegMininum64.dll(dca)
采样率: 48000 -> 48000 Hz
位率: 0 -> 16 位
声道数: 6 -> 2 声道
Bitrate: 1509 kbps

General
Unique ID : 242751676094928870819015422033436317275 (0xB6A045AF2BAD6DAFB7347B40E15B965B)
Complete name : Y:\The.Pyongyang.Concert.2008.Bluray.1080p.DTS.x264-CHD\The.Pyongyang.Concert.2008.Bluray.1080p.DTS.x264-CHD.mkv
Format : Matroska
Format version : Version 2
File size : 8.70 GiB
Duration : 1 h 47 min
Overall bit rate : 11.6 Mb/s
Encoded date : UTC 2010-04-15 16:24:39
Writing application : mkvmerge v3.3.0 ('Language') 编译于 Mar 24 2010 14:59:24
Writing library : libebml v0.8.0 + libmatroska v0.9.0

Video
ID : 1
Format : AVC
Format/Info : Advanced Video Codec
Format profile : High@L4.1
Format settings : CABAC / 4 Ref Frames
Format settings, CABAC : Yes
Format settings, Reference fra : 4 frames
Codec ID : V_MPEG4/ISO/AVC
Duration : 1 h 47 min
Bit rate : 10.1 Mb/s
Width : 1 920 pixels
Height : 1 080 pixels
Display aspect ratio : 16:9
Frame rate mode : Constant
Frame rate : 29.970 FPS
Color space : YUV
Chroma subsampling : 4:2:0
Bit depth : 8 bits
Scan type : Progressive
Bits/(Pixel*Frame) : 0.162
Stream size : 7.39 GiB (85%)
Title : The.Pyongyang.Concert.2008.Bluray.1080p.DTS.x264-CHD
Writing library : x264 core 92 r1523 25ca5b0
Encoding settings : cabac=1 / ref=4 / deblock=1:-3:-3 / analyse=0x3:0x113 / me=umh / subme=10 / psy=1 / psy_rd=1.10:0.10 / mixed_ref=1 / me_range=128 / chroma_me=1 / trellis=2 / 8x8dct=1 / cqm=2 / deadzone=21,11 / fast_pskip=0 / chroma_qp_offset=-3 / threads=6 / sliced_threads=0 / nr=0 / decimate=0 / interlaced=0 / constrained_intra=0 / bframes=3 / b_pyramid=2 / b_adapt=2 / b_bias=0 / direct=3 / wpredb=1 / wpredp=2 / keyint=120 / keyint_min=30 / scenecut=40 / intra_refresh=0 / rc_lookahead=60 / rc=2pass / mbtree=1 / bitrate=10072 / ratetol=2.0 / qcomp=0.65 / qpmin=10 / qpmax=51 / qpstep=4 / cplxblur=20.0 / qblur=0.5 / vbv_maxrate=50000 / vbv_bufsize=50000 / ip_ratio=1.40 / aq=1:1.00 / nal_hrd=none
Language : English
Default : Yes
Forced : No

Audio
ID : 2
Format : DTS
Format/Info : Digital Theater Systems
Codec ID : A_DTS
Duration : 1 h 47 min
Bit rate mode : Constant
Bit rate : 1 510 kb/s
Channel(s) : 6 channels
Channel layout : C L R Ls Rs LFE
Sampling rate : 48.0 kHz
Frame rate : 93.750 FPS (512 SPF)
Bit depth : 24 bits
Compression mode : Lossy
Stream size : 1.13 GiB (13%)
Title : DTS 5.1ch 1536k
Language : English
Default : Yes
Forced : No

 

资源下载
下载价格5 金币
VIP免费
所有资源都在百度网盘,如有链接失效、解压错误等、请联系管理微信:lgychcom
原文链接:https://www.lgych.com/50992.html,转载请注明出处。
0

评论125

请先
  1. 支持发展越来越好06j
    2023-01-16 0
  2. 不错axy
    2023-01-18 0
  3. 破天荒的演出,此时老马的身份是美国纽约爱乐乐团音乐总监兼指挥。
    mldmybox已购买 2024-01-07 0
  4. 谢谢6p8
    3周前 0
  5. 感谢分享3rn
    3周前 0
1 5 6 7
谭咏麟 张国荣 碟圣巨星原装Music Video难忘金曲 LD碟A+碟B [DVDISO 3.17G+3.99G]
谭咏麟 张国荣 碟圣巨星原装Music Video难忘金曲 LD碟A+碟B [DVDISO 3.17G+3.99G]
刚刚 有人购买 去瞅瞅看
显示验证码
没有账号?注册  忘记密码?