欧洲歌唱大赛 Eurovision Song Contest The Story of Fire Saga 2020 UHD 4K《WEB-DL MKV 23.5G》

[视频信息]
视频编码: HVC1 - Native D3D9 DXVA Decoder(VLD) - Intel(R) UHD Graphics 770
输入格式: HVC1(24 bits)
输入尺寸: 3840 × 2076(1.85:1)
输出格式: dxva
输出尺寸: 3840 × 2076(1.85:1)
帧率: 24
BitRate: 未知

[音频信息]
音频编码: DD+(0x2000) - 内置 FFmpeg 解码器(eac3)
采样率: 48000 -> 48000 Hz
位率: 0 -> 16 位
声道数: 6 -> 2 声道
Bitrate: 640 kbps

General
Unique ID : 71027916596541281792200344704346084924 (0x356F7AA9512460CCA28F60160F2DD63C)
Complete name : Y:\Eurovision.Song.Contest.The.Story.of.Fire.Saga.2020..TR.WEB-DL.x265.10bit.SDR.DDP5.1.mkv\Eurovision.Song.Contest.The.Story.of.Fire.Saga.2020..TR.WEB-DL.x265.10bit.SDR.DDP5.1.mkv
Format : Matroska
Format version : Version 4
File size : 23.6 GiB
Duration : 2 h 3 min
Overall bit rate : 27.3 Mb/s
Encoded date : UTC 2021-02-26 10:16:50
Writing application : mkvmerge v25.0.0 ('Prog Noir') 64-bit
Writing library : libebml v1.3.6 + libmatroska v1.4.9

Video
ID : 1
Format : HEVC
Format/Info : High Efficiency Video Coding
Format profile : Main 10@L5.1@High
Codec ID : V_MPEGH/ISO/HEVC
Duration : 2 h 3 min
Bit rate : 26.0 Mb/s
Width : 3 840 pixels
Height : 2 076 pixels
Display aspect ratio : 1.85:1
Frame rate mode : Constant
Frame rate : 24.000 FPS
Color space : YUV
Chroma subsampling : 4:2:0
Bit depth : 10 bits
Bits/(Pixel*Frame) : 0.136
Stream size : 22.5 GiB (95%)
Writing library : x265 3.3+10-g08d895bb6:[Windows][GCC 10.0.1][64 bit] 10bit
Encoding settings : cpuid=1111039 / frame-threads=4 / numa-pools=24 / wpp / no-pmode / no-pme / no-psnr / no-ssim / log-level=2 / input-csp=1 / input-res=3840x2076 / interlace=0 / total-frames=177957 / level-idc=51 / high-tier=1 / uhd-bd=0 / ref=5 / no-allow-non-conformance / repeat-headers / annexb / aud / hrd / info / hash=0 / no-temporal-layers / open-gop / min-keyint=24 / keyint=250 / gop-lookahead=0 / bframes=8 / b-adapt=2 / b-pyramid / bframe-bias=0 / rc-lookahead=40 / lookahead-slices=8 / scenecut=40 / hist-scenecut=0 / radl=0 / no-splice / no-intra-refresh / ctu=64 / min-cu-size=8 / no-rect / no-amp / max-tu-size=32 / tu-inter-depth=4 / tu-intra-depth=4 / limit-tu=4 / rdoq-level=0 / dynamic-rd=0.00 / no-ssim-rd / signhide / no-tskip / nr-intra=0 / nr-inter=0 / no-constrained-intra / strong-intra-smoothing / max-merge=4 / limit-refs=1 / no-limit-modes / me=1 / subme=5 / merange=57 / temporal-mvp / no-frame-dup / no-hme / weightp / weightb / no-analyze-src-pics / deblock=-3:-3 / no-sao / no-sao-non-deblock / rd=4 / selective-sao=0 / early-skip / rskip / no-fast-intra / no-tskip-fast / no-cu-lossless / b-intra / no-splitrd-skip / rdpenalty=0 / psy-rd=2.00 / psy-rdoq=0.00 / no-rd-refine / no-lossless / cbqpoffs=0 / crqpoffs=0 / rc=crf / crf=19.0 / qcomp=0.60 / qpstep=4 / stats-write=0 / stats-read=0 / vbv-maxrate=160000 / vbv-bufsize=160000 / vbv-init=0.9 / crf-max=0.0 / crf-min=0.0 / ipratio=1.30 / pbratio=1.20 / aq-mode=1 / aq-strength=0.85 / no-cutree / zone-count=0 / no-strict-cbr / qg-size=32 / no-rc-grain / qpmax=69 / qpmin=0 / no-const-vbv / sar=1 / overscan=0 / videoformat=5 / range=0 / colorprim=1 / transfer=1 / colormatrix=1 / chromaloc=0 / display-window=0 / cll=0,0 / min-luma=0 / max-luma=1023 / log2-max-poc-lsb=8 / vui-timing-info / vui-hrd-info / slices=1 / no-opt-qp-pps / no-opt-ref-list-length-pps / no-multi-pass-opt-rps / scenecut-bias=0.05 / hist-threshold=0.01 / no-opt-cu-delta-qp / no-aq-motion / no-hdr10 / no-hdr10-opt / no-dhdr10-opt / no-idr-recovery-sei / analysis-reuse-level=0 / analysis-save-reuse-level=0 / analysis-load-reuse-level=0 / scale-factor=0 / refine-intra=0 / refine-inter=0 / refine-mv=1 / refine-ctu-distortion=0 / no-limit-sao / ctu-info=0 / no-lowpass-dct / refine-analysis-type=0 / copy-pic=1 / max-ausize-factor=1.0 / no-dynamic-refine / no-single-sei / no-hevc-aq / no-svt / no-field / qp-adaptation-range=1.00 / no-scenecut-aware-qpconformance-window-offsets / right=0 / bottom=0 / decoder-max-rate=0
Default : Yes
Forced : No
Color range : Limited
Color primaries : BT.709
Transfer characteristics : BT.709
Matrix coefficients : BT.709

Audio #1
ID : 2
Format : E-AC-3
Format/Info : Enhanced AC-3
Commercial name : Dolby Digital Plus
Codec ID : A_EAC3
Duration : 2 h 3 min
Bit rate mode : Constant
Bit rate : 640 kb/s
Channel(s) : 6 channels
Channel layout : L R C LFE Ls Rs
Sampling rate : 48.0 kHz
Frame rate : 31.250 FPS (1536 SPF)
Compression mode : Lossy
Stream size : 566 MiB (2%)
Language : Russian
Service kind : Complete Main
Default : No
Forced : No

Audio #2
ID : 3
Format : E-AC-3
Format/Info : Enhanced AC-3
Commercial name : Dolby Digital Plus
Codec ID : A_EAC3
Duration : 2 h 3 min
Bit rate mode : Constant
Bit rate : 640 kb/s
Channel(s) : 6 channels
Channel layout : L R C LFE Ls Rs
Sampling rate : 48.0 kHz
Frame rate : 31.250 FPS (1536 SPF)
Compression mode : Lossy
Stream size : 566 MiB (2%)
Title : English
Language : English
Service kind : Complete Main
Default : Yes
Forced : No

Text #1
ID : 4
Format : UTF-8
Codec ID : S_TEXT/UTF8
Codec ID/Info : UTF-8 Plain Text
Duration : 1 h 54 min
Bit rate : 99 b/s
Count of elements : 1837
Stream size : 82.9 KiB (0%)
Language : Russian
Default : No
Forced : No

Text #2
ID : 5
Format : UTF-8
Codec ID : S_TEXT/UTF8
Codec ID/Info : UTF-8 Plain Text
Duration : 1 h 53 min
Bit rate : 78 b/s
Count of elements : 2039
Stream size : 64.9 KiB (0%)
Language : English
Default : No
Forced : No

 

资源下载此资源仅限注册用户下载,请先
所有资源都在百度网盘,如有链接失效、解压错误等、请联系管理微信:aimuvv
资源下载
下载价格免费
所有资源都在百度网盘,如有链接失效、解压错误等、请联系管理微信:aimuvv

原文链接:https://www.lgych.com/51769.html,转载请注明出处。

3

评论354

请先

  1. 感谢楼主的精彩的分享~!
    赵慧慧123 7天前 0
  2. 不错的资源
    zengzhi 7天前 0
  3. 感谢分享
    zyzyzy 6天前 0
  4. 多謝分享
    nihaowa 6天前 0
  5. 感谢楼主!!
    zengzhi 6天前 0
  6. 感谢分享 :mad:
    by20725 5天前 0
  7. 帅啊
    alxh131234 4天前 0
  8. 欧洲好声音
    nihaowa 4天前 0
  9. 反对法
    a2493570 3天前 0
  10. 谢谢分享这么好的资源
    saito 3天前 0
  11. 感谢分享
    jabinchen 3天前 0
  12. 感謝樓主的精彩的分享~!
    liyuechan 3天前 0
  13. jdjd
    a278435871 2天前 0
1 16 17 18
华语蓝光合集 252部11T资源终极收藏!支持硬盘拷贝:https://www.lgych.com/cnbd/
显示验证码
没有账号? 注册  忘记密码?