Massenet - Thais (Teatro Regio di Torino, 2008)《BDMV 21.2G》

Disc Label: Massenet - Thais (Teatro Regio di Torino, 2008)
Disc Size: 22,787,669,084 bytes
Protection: AACS
Playlist: 00000.MPLS
Size: 0 bytes
Length: 2:19:10.709
Total Bitrate: 0.00 Mbps
Video: MPEG-4 AVC Video / 0 kbps / 1080i / 29.970 fps / 16:9 / High Profile 4.1
Audio: French / LPCM Audio / 2.0 / 48 kHz / 1536 kbps / 16-bit
Audio: French / DTS-HD Master Audio / 7.1 / 48 kHz / 16-bit (DTS Core: 5.1 / 48 kHz / 1509 kbps / 16-bit)

DISC INFO:

Disc Label: Massenet - Thais (Teatro Regio di Torino, 2008)
Disc Size: 22,787,669,084 bytes
Protection: AACS
BDInfo: 0.7.5.6

PLAYLIST REPORT:

Name: 00000.MPLS
Length: 2:19:10.709 (h:m:s.ms)
Size: 0 bytes
Total Bitrate: 0.00 Mbps

VIDEO:

Codec Bitrate Description
----- ------- -----------
MPEG-4 AVC Video 0 kbps 1080i / 29.970 fps / 16:9 / High Profile 4.1

AUDIO:

Codec Language Bitrate Description
----- -------- ------- -----------
LPCM Audio French 1536 kbps 2.0 / 48 kHz / 1536 kbps / 16-bit
DTS-HD Master Audio French 0 kbps 7.1 / 48 kHz / 16-bit (DTS Core: 5.1 / 48 kHz / 1509 kbps / 16-bit)

SUBTITLES:

Codec Language Bitrate Description
----- -------- ------- -----------
Presentation Graphics English 0.000 kbps
Presentation Graphics German 0.000 kbps
Presentation Graphics French 0.000 kbps
Presentation Graphics Spanish 0.000 kbps
Presentation Graphics Italian 0.000 kbps
Presentation Graphics Japanese 0.000 kbps

FILES:

Name Time In Length Size Total Bitrate
---- ------- ------ ---- -------------
00000.M2TS 0:00:00.000 0:43:19.597 0 0
00002.M2TS 0:43:19.597 0:51:10.067 0 0
00004.M2TS 1:34:29.664 0:44:26.664 0 0
00006.M2TS 2:18:56.328 0:00:14.047 0 0
00005.M2TS 2:19:10.375 0:00:00.333 0 0

CHAPTERS:

Number Time In Length Avg Video Rate Max 1-Sec Rate Max 1-Sec Time Max 5-Sec Rate Max 5-Sec Time Max 10Sec Rate Max 10Sec Time Avg Frame Size Max Frame Size Max Frame Time

资源下载
下载价格20 金币
终身VIP免费
所有资源都在百度网盘,如有链接失效、解压错误等、请联系管理微信:lgychcom
原文链接:https://www.lgych.com/52078.html,转载请注明出处。
0

评论188

请先
  1. 支持发展越来越好43v
    2023-01-16 0
  2. 不错d3l
    2023-01-16 0
  3. 很棒的资源。谢谢zam
    2023-01-16 0
  4. 感谢分享好资源。
    mcht 2023-09-11 0
  5. 谢谢分享
    sonicw 2023-11-08 0
  6. 很棒的资源v5w
    1周前 0
  7. 感谢分享w8r
    1周前 0
  8. 非常感谢fce
    7天前 0
1 8 9 10
아이브 IVE - The First Fan Concert The Prom Queens 2023 [BDISO 2BD 77GB]
아이브 IVE - The First Fan Concert The Prom Queens 2023 [BDISO 2BD 77GB]
3分钟前 有人购买 去瞅瞅看
本站资源均可通过签到或者评论免费获取,被一些朋友批量注册账号玩坏了;关闭自由注册,后面需要注册账号的朋友,请自助购买邀请码注册
显示验证码
没有账号?注册  忘记密码?