Doro Strong and Proud 2016《Remux MKV 32.5GB》

[视频信息]
视频编码: AVC1 - Native D3D9 DXVA Decoder(VLD) - Intel(R) UHD Graphics 770
输入格式: AVC1(24 bits)
输入尺寸: 1920 × 1080(1.78:1)
输出格式: dxva
输出尺寸: 1920 × 1080(1.78:1)
帧率: 29.97
BitRate: 未知

[音频信息]
音频编码: AC3(0x2000) - 内置 FFmpeg 解码器(ac3)
采样率: 48000 -> 48000 Hz
位率: 0 -> 16 位
声道数: 6 -> 2 声道
Bitrate: 448 kbps

General
Unique ID : 184767714531077917859013938534931072590 (0x8B00F7A8A64FFC1383194F3A53ED864E)
Complete name : Y:\Doro.Strong.and.Proud.2016.BDRemux.1080i.NovaLan.mkv\Doro.Strong.and.Proud.2016.BDRemux.1080i.NovaLan.mkv
Format : Matroska
Format version : Version 4
File size : 32.5 GiB
Duration : 3 h 32 min
Overall bit rate mode : Variable
Overall bit rate : 21.9 Mb/s
Movie name : Doro - Strong And Proud 2016 - NovaLan
Encoded date : UTC 2016-07-03 21:51:18
Writing application : mkvmerge v6.9.1 ('Blue Panther') 64bit built on Apr 18 2014 18:23:38
Writing library : libebml v1.3.0 + libmatroska v1.4.1

Video
ID : 1
Format : AVC
Format/Info : Advanced Video Codec
Format profile : High@L4.1
Format settings : CABAC / 3 Ref Frames
Format settings, CABAC : Yes
Format settings, Reference fra : 3 frames
Format settings, GOP : M=3, N=15
Codec ID : V_MPEG4/ISO/AVC
Duration : 3 h 32 min
Bit rate mode : Variable
Bit rate : 20.8 Mb/s
Maximum bit rate : 30.0 Mb/s
Width : 1 920 pixels
Height : 1 080 pixels
Display aspect ratio : 16:9
Frame rate mode : Constant
Frame rate : 29.970 (30000/1001) FPS
Standard : NTSC
Color space : YUV
Chroma subsampling : 4:2:0
Bit depth : 8 bits
Scan type : MBAFF
Bits/(Pixel*Frame) : 0.335
Stream size : 30.9 GiB (95%)
Title : ♪Doro♪
Language : English
Default : Yes
Forced : No
Color range : Limited
Color primaries : BT.709
Transfer characteristics : BT.709
Matrix coefficients : BT.709

Audio #1
ID : 2
Format : AC-3
Format/Info : Audio Coding 3
Commercial name : Dolby Digital
Codec ID : A_AC3
Duration : 3 h 32 min
Bit rate mode : Constant
Bit rate : 448 kb/s
Channel(s) : 6 channels
Channel layout : L R C LFE Ls Rs
Sampling rate : 48.0 kHz
Frame rate : 31.250 FPS (1536 SPF)
Compression mode : Lossy
Stream size : 682 MiB (2%)
Language : English
Service kind : Complete Main
Default : Yes
Forced : No

Audio #2
ID : 3
Format : AC-3
Format/Info : Audio Coding 3
Commercial name : Dolby Digital
Codec ID : A_AC3
Duration : 3 h 32 min
Bit rate mode : Constant
Bit rate : 192 kb/s
Channel(s) : 2 channels
Channel layout : L R
Sampling rate : 48.0 kHz
Frame rate : 31.250 FPS (1536 SPF)
Compression mode : Lossy
Stream size : 292 MiB (1%)
Language : English
Service kind : Complete Main
Default : No
Forced : No

Menu
00:00:00.000 : en:Chapter 1
00:00:44.978 : en:Chapter 2
00:05:57.623 : en:Chapter 3
00:11:52.977 : en:Chapter 4
00:16:11.870 : en:Chapter 5
00:19:08.547 : en:Chapter 6
00:22:21.772 : en:Chapter 7
00:27:01.319 : en:Chapter 8
00:31:26.651 : en:Chapter 9
00:36:55.179 : en:Chapter 10
00:45:16.647 : en:Chapter 11
00:49:07.744 : en:Chapter 12
00:53:52.128 : en:Chapter 13
01:00:52.181 : en:Chapter 14
01:05:32.295 : en:Chapter 15
01:10:38.133 : en:Chapter 16
01:15:51.780 : en:Chapter 17
01:19:33.835 : en:Chapter 18
01:24:53.220 : en:Chapter 19
01:31:47.702 : en:Chapter 20
01:38:06.247 : en:Chapter 21
01:42:43.157 : en:Chapter 22
01:47:53.266 : en:Chapter 23
01:54:51.251 : en:Chapter 24
01:58:35.942 : en:Chapter 25
02:03:05.377 : en:Chapter 26
02:06:22.975 : en:Chapter 27
02:13:02.541 : en:Chapter 28
02:18:28.099 : en:Chapter 29
02:22:25.703 : en:Chapter 30
02:28:21.825 : en:Chapter 31
02:34:57.221 : en:Chapter 32
02:51:12.128 : en:Chapter 33
02:56:30.713 : en:Chapter 34
03:00:10.332 : en:Chapter 35
03:07:03.712 : en:Chapter 36
03:11:14.262 : en:Chapter 37
03:18:17.852 : en:Chapter 38
03:29:28.255 : en:Chapter 39

 

资源下载
下载价格10 金币
VIP免费
所有资源都在百度网盘,如有链接失效、解压错误等、请联系管理微信:lgychcom
原文链接:https://www.lgych.com/53736.html,转载请注明出处。
0

评论129

请先
  1. 很棒的资源。谢谢p94
    2023-01-16 0
  2. 不错xvr
    2023-01-16 0
  3. 不错bkl
    2023-01-16 0
  4. 好资源感谢分享deh
    2023-01-18 0
  5. 谢谢分享jws 谢谢分享jws
    小小小妞 2023-08-13 0
  6. 感谢分享!!
    南风透123 2023-09-18 0
  7. 支持发展越来越好47r
    1周前 0
  8. 谢谢分享jfc
    1周前 0
  9. 非常感谢uq4
    1周前 0
1 5 6 7
IVE - Kitsch 4K 2160P [Bugs MP4 2.34GB]
IVE - Kitsch 4K 2160P [Bugs MP4 2.34GB]
1分钟前 有人购买 去瞅瞅看
本站资源均可通过签到或者评论免费获取,被一些朋友批量注册账号玩坏了;关闭自由注册,后面需要注册账号的朋友,请自助购买邀请码注册
显示验证码
没有账号?注册  忘记密码?