Hillsong Live Cornerstone 2012《BDrip MKV 8.74GB》

[视频信息]
视频编码: AVC1 - Native D3D9 DXVA Decoder(VLD) - Intel(R) UHD Graphics 770
输入格式: AVC1(24 bits)
输入尺寸: 1920 × 1080(1.78:1)
输出格式: dxva
输出尺寸: 1920 × 1080(1.78:1)
帧率: 23.976
BitRate: 未知

[音频信息]
音频编码: DTS(0x2001) - FFmpegMininum64.dll(dca)
采样率: 48000 -> 48000 Hz
位率: 0 -> 16 位
声道数: 6 -> 2 声道
Bitrate: 1509 kbps

General
Unique ID : 211982546675673839092922318838443766794 (0x9F7A5A7A9606AAA8915C859A0E67740A)
Complete name : Y:\Hillsong Live Cornerstone 2012 1080p\Hillsong Live Cornerstone 2012 1080p.mkv
Format : Matroska
Format version : Version 2
File size : 6.56 GiB
Duration : 1 h 32 min
Overall bit rate : 10.2 Mb/s
Encoded date : UTC 2013-02-17 06:30:33
Writing application : mkvmerge v5.7.0 ('The Whirlwind') built on Jul 8 2012 20:08:51
Writing library : libebml v1.2.3 + libmatroska v1.3.0

Video
ID : 1
Format : AVC
Format/Info : Advanced Video Codec
Format profile : High@L4.1
Format settings : CABAC / 4 Ref Frames
Format settings, CABAC : Yes
Format settings, Reference fra : 4 frames
Codec ID : V_MPEG4/ISO/AVC
Duration : 1 h 32 min
Bit rate : 8 646 kb/s
Width : 1 920 pixels
Height : 1 080 pixels
Display aspect ratio : 16:9
Frame rate mode : Constant
Frame rate : 23.976 (24000/1001) FPS
Color space : YUV
Chroma subsampling : 4:2:0
Bit depth : 8 bits
Scan type : Progressive
Bits/(Pixel*Frame) : 0.174
Stream size : 5.46 GiB (83%)
Writing library : x264 core 129 r2245 bc13772
Encoding settings : cabac=1 / ref=4 / deblock=1:0:0 / analyse=0x3:0x133 / me=umh / subme=8 / psy=1 / psy_rd=1.00:0.00 / mixed_ref=1 / me_range=16 / chroma_me=1 / trellis=1 / 8x8dct=1 / cqm=0 / deadzone=21,11 / fast_pskip=0 / chroma_qp_offset=-2 / threads=12 / lookahead_threads=2 / sliced_threads=0 / nr=0 / decimate=1 / interlaced=0 / bluray_compat=0 / constrained_intra=0 / bframes=3 / b_pyramid=2 / b_adapt=1 / b_bias=0 / direct=1 / weightb=1 / open_gop=0 / weightp=2 / keyint=250 / keyint_min=23 / scenecut=40 / intra_refresh=0 / rc_lookahead=40 / rc=2pass / mbtree=1 / bitrate=8646 / ratetol=1.0 / qcomp=0.60 / qpmin=0 / qpmax=69 / qpstep=4 / cplxblur=20.0 / qblur=0.5 / ip_ratio=1.40 / aq=1:1.00
Language : English
Default : Yes
Forced : No

Audio
ID : 2
Format : DTS
Format/Info : Digital Theater Systems
Codec ID : A_DTS
Duration : 1 h 32 min
Bit rate mode : Constant
Bit rate : 1 509 kb/s
Channel(s) : 6 channels
Channel layout : C L R Ls Rs LFE
Sampling rate : 48.0 kHz
Frame rate : 93.750 FPS (512 SPF)
Bit depth : 24 bits
Compression mode : Lossy
Stream size : 998 MiB (15%)
Default : Yes
Forced : No

Menu
00:00:00.000 : en:00:00:00.000
00:02:20.015 : en:00:02:20.015
00:06:25.635 : en:00:06:25.635
00:10:42.767 : en:00:10:42.767
00:11:30.607 : en:00:11:30.607
00:21:58.067 : en:00:21:58.067
00:27:59.469 : en:00:27:59.469
00:35:55.195 : en:00:35:55.195
00:41:17.141 : en:00:41:17.141
00:45:48.746 : en:00:45:48.746
00:50:33.155 : en:00:50:33.155
00:55:19.900 : en:00:55:19.900
01:00:52.274 : en:01:00:52.274
01:05:47.527 : en:01:05:47.527
01:12:17.833 : en:01:12:17.833
01:18:20.070 : en:01:18:20.070
01:24:49.209 : en:01:24:49.209

 

资源下载
下载价格5 金币
VIP免费
所有资源都在百度网盘,如有链接失效、解压错误等、请联系管理微信:lgychcom
原文链接:https://www.lgych.com/53880.html,转载请注明出处。
0

评论165

请先
  1. 不错1eq
    2周前 0
  2. 不错dwf
    2周前 0
  3. 感谢分享flo
    2周前 0
  4. 谢谢dxr
    2周前 0
  5. 支持发展越来越好48f
    2周前 0
1 7 8 9
岚 ARASHI  what is  love~今じゃない作れないアルバムになった  2013《M2TS 51.2G》
岚 ARASHI what is love~今じゃない作れないアルバムになった 2013《M2TS 51.2G》
3分钟前 有人购买 去瞅瞅看
本站资源均可通过签到或者评论免费获取,被一些朋友批量注册账号玩坏了;关闭自由注册,后面需要注册账号的朋友,请自助购买邀请码注册
显示验证码
没有账号?注册  忘记密码?