海伦·格里莫钢琴独奏音乐会 Helene Grimaud at Elbphiharmonie Hamburg 2017《BDMV 17.1GB》

DISC INFO:

Disc Title: WOODLANDS AND BEYOND...
Disc Label: Helene Grimaud at Elbphiharmonie Hamburg 2017 BluRay 1080i AVC DTS-HD MA
Disc Size: 18,394,595,812 bytes
Protection: AACS
BDInfo: 0.7.5.6

PLAYLIST REPORT:

Name: 00009.MPLS
Length: 0:59:07.210 (h:m:s.ms)
Size: 0 bytes
Total Bitrate: 0.00 Mbps

VIDEO:

Codec Bitrate Description
----- ------- -----------
MPEG-4 AVC Video 0 kbps 1080i / 29.970 fps / 16:9 / High Profile 4.1

AUDIO:

Codec Language Bitrate Description
----- -------- ------- -----------
LPCM Audio Undetermined 2304 kbps 2.0 / 48 kHz / 2304 kbps / 24-bit
DTS-HD Master Audio Undetermined 0 kbps 5.0 / 48 kHz / 24-bit (DTS Core: 5.0 / 48 kHz / 1152 kbps / 24-bit)

FILES:

Name Time In Length Size Total Bitrate
---- ------- ------ ---- -------------
00001.M2TS 0:00:00.000 0:59:01.871 0 0
00004.M2TS 0:59:01.871 0:00:05.004 0 0
00000.M2TS 0:59:06.876 0:00:00.333 0 0

CHAPTERS:

Number Time In Length Avg Video Rate Max 1-Sec Rate Max 1-Sec Time Max 5-Sec Rate Max 5-Sec Time Max 10Sec Rate Max 10Sec Time Avg Frame Size Max Frame Size Max Frame Time
------ ------- ------ -------------- -------------- -------------- -------------- -------------- -------------- -------------- -------------- -------------- --------------
1 0:00:00.000 0:00:27.994 0 kbps 0 kbps 00:00:00.000 0 kbps 00:00:00.000 0 kbps 00:00:00.000 0 bytes 0 bytes 00:00:00.000
2 0:00:27.994 0:02:05.992 0 kbps 0 kbps 00:00:00.000 0 kbps 00:00:00.000 0 kbps 00:00:00.000 0 bytes 0 bytes 00:00:00.000
3 0:02:33.987 0:01:18.011 0 kbps 0 kbps 00:00:00.000 0 kbps 00:00:00.000 0 kbps 00:00:00.000 0 bytes 0 bytes 00:00:00.000
4 0:03:51.998 0:04:40.580 0 kbps 0 kbps 00:00:00.000 0 kbps 00:00:00.000 0 kbps 00:00:00.000 0 bytes 0 bytes 00:00:00.000
5 0:08:32.578 0:01:38.998 0 kbps 0 kbps 00:00:00.000 0 kbps 00:00:00.000 0 kbps 00:00:00.000 0 bytes 0 bytes 00:00:00.000
6 0:10:11.577 0:06:36.062 0 kbps 0 kbps 00:00:00.000 0 kbps 00:00:00.000 0 kbps 00:00:00.000 0 bytes 0 bytes 00:00:00.000
7 0:16:47.639 0:01:31.357 0 kbps 0 kbps 00:00:00.000 0 kbps 00:00:00.000 0 kbps 00:00:00.000 0 bytes 0 bytes 00:00:00.000
8 0:18:18.997 0:05:20.987 0 kbps 0 kbps 00:00:00.000 0 kbps 00:00:00.000 0 kbps 00:00:00.000 0 bytes 0 bytes 00:00:00.000
9 0:23:39.985 0:01:28.988 0 kbps 0 kbps 00:00:00.000 0 kbps 00:00:00.000 0 kbps 00:00:00.000 0 bytes 0 bytes 00:00:00.000
10 0:25:08.974 0:09:59.498 0 kbps 0 kbps 00:00:00.000 0 kbps 00:00:00.000 0 kbps 00:00:00.000 0 bytes 0 bytes 00:00:00.000
11 0:35:08.473 0:00:53.520 0 kbps 0 kbps 00:00:00.000 0 kbps 00:00:00.000 0 kbps 00:00:00.000 0 bytes 0 bytes 00:00:00.000
12 0:36:01.993 0:07:20.406 0 kbps 0 kbps 00:00:00.000 0 kbps 00:00:00.000 0 kbps 00:00:00.000 0 bytes 0 bytes 00:00:00.000
13 0:43:22.399 0:01:32.592 0 kbps 0 kbps 00:00:00.000 0 kbps 00:00:00.000 0 kbps 00:00:00.000 0 bytes 0 bytes 00:00:00.000
14 0:44:54.992 0:04:35.775 0 kbps 0 kbps 00:00:00.000 0 kbps 00:00:00.000 0 kbps 00:00:00.000 0 bytes 0 bytes 00:00:00.000
15 0:49:30.767 0:01:16.209 0 kbps 0 kbps 00:00:00.000 0 kbps 00:00:00.000 0 kbps 00:00:00.000 0 bytes 0 bytes 00:00:00.000
16 0:50:46.977 0:05:39.405 0 kbps 0 kbps 00:00:00.000 0 kbps 00:00:00.000 0 kbps 00:00:00.000 0 bytes 0 bytes 00:00:00.000
17 0:56:26.383 0:02:40.827 0 kbps 0 kbps 00:00:00.000 0 kbps 00:00:00.000 0 kbps 00:00:00.000 0 bytes 0 bytes 00:00:00.000

STREAM DIAGNOSTICS:

File PID Type Codec Language Seconds Bitrate Bytes Packets
---- --- ---- ----- -------- -------------- -------------- ------------- -----
00001.M2TS 4113 (0x1011) 0x1B AVC 0.033 0 0 0
00001.M2TS 4352 (0x1100) 0x80 LPCM und (Undetermined) 0.033 0 0 0
00001.M2TS 4353 (0x1101) 0x86 DTS-HD MA und (Undetermined) 0.033 0 0 0
00004.M2TS 4113 (0x1011) 0x1B AVC 0 0 0 0
00000.M2TS 4113 (0x1011) 0x1B AVC 0 0 0 0

[/code]
<---- END FORUMS PASTE ---->

QUICK SUMMARY:

Disc Title: WOODLANDS AND BEYOND...
Disc Label: Helene Grimaud at Elbphiharmonie Hamburg 2017 BluRay 1080i AVC DTS-HD MA
Disc Size: 18,394,595,812 bytes
Protection: AACS
Playlist: 00009.MPLS
Size: 0 bytes
Length: 0:59:07.210
Total Bitrate: 0.00 Mbps
Video: MPEG-4 AVC Video / 0 kbps / 1080i / 29.970 fps / 16:9 / High Profile 4.1
Audio: Undetermined / LPCM Audio / 2.0 / 48 kHz / 2304 kbps / 24-bit
Audio: Undetermined / DTS-HD Master Audio / 5.0 / 48 kHz / 24-bit (DTS Core: 5.0 / 48 kHz / 1152 kbps / 24-bit)

资源下载
下载价格17 金币
终身VIP免费
所有资源都在百度网盘,如有链接失效、解压错误等、请联系管理微信:aimuvv

原文链接:https://www.lgych.com/56506.html,转载请注明出处。

1

评论208

请先

  1. 謝謝分享好東西
    繁华依旧 4天前 0
  2. 海倫·格裏莫鋼琴獨奏音樂會
    陈不老先生 4天前 0
  3. thanks for sharing
    truelier1588 3天前 0
  4. 感谢分享
    9ccdtk 2天前 0
  5. 谢谢谢谢谢谢谢谢
    陈不老先生 1天前 0
  6. 辛苦整理,感谢分享。
    fengbolee 1天前 0
  7. 谢谢分享!
    ney322 12小时前 0
  8. 謝謝分享!
    wslige 5小时前 0
1 9 10 11
华语蓝光合集 252部11T资源终极收藏!支持硬盘拷贝:https://www.lgych.com/cnbd/
显示验证码
没有账号?注册  忘记密码?