竹内玛莉亚 竹内まりや - souvenir the movie 〜MARIYA TAKEUCHI Theater Live〜 2020《BDMV 2BD 60.3GB》

Disc Label: TAKEUCHI_MARIYA_DISC_1
Disc Size: 29,373,351,748 bytes
Protection: AACS
Playlist: 00002.MPLS
Size: 0 bytes
Length: 1:34:39.757
Total Bitrate: 0.00 Mbps
Video: MPEG-4 AVC Video / 0 kbps / 1080p / 23.976 fps / 16:9 / High Profile 4.1
Audio: Japanese / LPCM Audio / 2.0 / 48 kHz / 2304 kbps / 24-bit

souvenir the movie ~MARIYA TAKEUCHI Theater Live~ (Special Edition) / 竹内まりや

竹内まりや、キャリア初となる映像作品がついに発売! Disc1には、映画『souvenir the movie ~MARIYA TAKEUCHI Theater Live~』を収録。Disc2には、映画未公開のライブ映像「マンハッタン・キス」、「告白(Live Version)」、「シングルアゲイン(Live Version)」、「象牙海岸」を収録。ミュージック・ビデオ版「Expressions」! これまで制作したミュージック・ビデオをほぼ全て収録。海外でも超話題の曲「プラスティック・ラブ」の2019年に制作したミュージック・ビデオ完全版を収録。竹内まりや・山下達郎のスペシャル対談を収録した豪華80ページ・ブックレット付き。

<Disc.1>
映画「souvenir the movie ~MARIYA TAKEUCHI Theater Live~」を収録
01. アンフィシアターの夜
02. 家に帰ろう(マイ・スイート・ホーム)
03. Forever Friends
04. マージービートで唄わせて
05. 五線紙
06. 静かな伝説(レジェンド)
07. 元気を出して
08. カムフラージュ
09. ウイスキーが、お好きでしょ
10. 人生の扉
11. プラスティック・ラブ
12. 駅
13. リンダ
14. 不思議なピーチパイ
15. SEPTEMBER
16. J-Boy
17. LET IT BE ME
18. いのちの歌

<Disc2> ※詳細後報
●映画未公開のライブ映像を収録
●ミュージック・ビデオ版「Expressions」!これまで制作したミュージック・ビデオをほぼすべて収録!
●海外でも超話題の曲「プラスティック・ラブ」の2019年に制作したミュージック・ビデオ完全版を収録

DISC INFO:

Disc Label: TAKEUCHI_MARIYA_DISC_1
Disc Size: 29,373,351,748 bytes
Protection: AACS
BDInfo: 0.7.5.6

PLAYLIST REPORT:

Name: 00002.MPLS
Length: 1:34:39.757 (h:m:s.ms)
Size: 0 bytes
Total Bitrate: 0.00 Mbps

VIDEO:

Codec Bitrate Description
----- ------- -----------
MPEG-4 AVC Video 0 kbps 1080p / 23.976 fps / 16:9 / High Profile 4.1

AUDIO:

Codec Language Bitrate Description
----- -------- ------- -----------
LPCM Audio Japanese 2304 kbps 2.0 / 48 kHz / 2304 kbps / 24-bit

FILES:

Name Time In Length Size Total Bitrate
---- ------- ------ ---- -------------
00006.M2TS 0:00:00.000 1:34:32.666 0 0
00007.M2TS 1:34:32.666 0:00:07.048 0 0
00000.M2TS 1:34:39.715 0:00:00.041 0 0

资源下载此资源下载价格为35金币,终身VIP免费,请先
所有资源都在百度网盘,如有链接失效、解压错误等、请联系管理微信:aimuvv
资源下载
下载价格35 金币
终身VIP免费
所有资源都在百度网盘,如有链接失效、解压错误等、请联系管理微信:aimuvv

原文链接:https://www.lgych.com/57089.html,转载请注明出处。

1

评论116

请先

  1. 感谢分享wf
    971145 1周前 0
  2. 感谢分享132
    huyiming249 1周前 0
  3. 感谢分享46
    hymhym 1周前 0
  4. 感谢分享465
    hym9711 1周前 0
  5. 谢谢分享666666
    牛牛pyd 1周前 0
  6. 谢谢分享很喜欢
    枫之小阴 1周前 0
  7. 很好的资源,谢谢分享
    tumingwan 1周前 0
  8. 谢谢分享cctt
    huyiming249 1周前 0
  9. 谢谢分享162
    971145 1周前 0
  10. 谢谢分享
    wonsweng 1周前 0
  11. 感谢分享,很不错的资源
    牛牛pyd 7天前 0
  12. 謝謝分享
    jio82513 7天前 0
  13. 来收经典老片百看不厌类型的经典
    yunfei8858 6天前 0
  14. 感谢分享!
    sadmoonz 6天前 0
  15. 很不错的资源,感谢分享
    terrisk 2天前 0
  16. 谢谢分享
    赵慧慧123 2天前 0
1 4 5 6
华语蓝光合集 252部11T资源终极收藏!支持硬盘拷贝:https://www.lgych.com/cnbd/
显示验证码
没有账号? 注册  忘记密码?