James Last 詹姆斯·拉斯特 Gentleman of music 2000 音乐绅士音乐会 [DVDRip MKV 1.12GB]

General
Unique ID : 17176913871061795220278350674937523638 (0xCEC273D34237E5C8CEC598BF8742DB6)
Complete name : I:\tJames.Last.Gentleman.Of.Music.2001.DVDRip.XviD.FS.AC3.mkv
Format : Matroska
Format version : Version 4
File size : 1.12 GiB
Duration : 1 h 32 min
Overall bit rate : 1 730 kb/s
Encoded date : UTC 2023-02-06 12:20:56
Writing application : mkvmerge v35.0.0 ('All The Love In The World') 32-bit
Writing library : libebml v1.3.9 + libmatroska v1.5.2 / Lavf59.34.101

Video
ID : 1
Format : AVC
Format/Info : Advanced Video Codec
Format profile : Main@L4.2
Format settings : CABAC / 4 Ref Frames
Format settings, CABAC : Yes
Format settings, Reference fra : 4 frames
Codec ID : V_MPEG4/ISO/AVC
Duration : 1 h 32 min
Bit rate : 1 600 kb/s
Width : 640 pixels
Height : 480 pixels
Display aspect ratio : 4:3
Frame rate mode : Constant
Frame rate : 25.000 FPS
Standard : Component
Color space : YUV
Chroma subsampling : 4:2:0
Bit depth : 8 bits
Scan type : Progressive
Bits/(Pixel*Frame) : 0.208
Stream size : 1.04 GiB (92%)
Writing library : Lavc59.52.100 h264_amf
Default : No
Forced : No
Color range : Limited

Audio
ID : 2
Format : MPEG Audio
Format version : Version 1
Format profile : Layer 3
Format settings : Joint stereo / MS Stereo
Codec ID : A_MPEG/L3
Codec ID/Hint : MP3
Duration : 1 h 32 min
Bit rate mode : Constant
Bit rate : 128 kb/s
Channel(s) : 2 channels
Sampling rate : 44.1 kHz
Frame rate : 38.281 FPS (1152 SPF)
Compression mode : Lossy
Stream size : 85.0 MiB (7%)
Default : Yes
Forced : No

资源下载
下载价格免费
所有资源都在百度网盘,如有链接失效、解压错误等、请联系管理微信:lgychcom
原文链接:https://www.lgych.com/61071.html,转载请注明出处。
7

评论282

请先
  1. 谢谢分享资源
    jxldehao 3天前 0
  2. 谢谢分享
    peaksight 2天前 0
1 13 14 15
黄凯芹 - 细听 • 黄凯芹 35周年演唱会2022 Chris Wong Live 2022 Blu-ray 1080i AVC DTS-HD Master Audio 5.1 [BDISO 44.22GB]
黄凯芹 - 细听 • 黄凯芹 35周年演唱会2022 Chris Wong Live 2022 Blu-ray 1080i AVC DTS-HD Master Audio 5.1 [BDISO 44.22GB]
1分钟前 有人购买 去瞅瞅看
显示验证码
没有账号?注册  忘记密码?