Yoona - Summer Night 1080P [Bugs MP4 595.7MB]

General
Complete name : I:\Yoona - Summer Night (Bugs1080P).mp4
Format : MPEG-4
Format profile : Base Media / Version 2
Codec ID : mp42 (mp41/mp42/isom)
File size : 596 MiB
Duration : 4 min 7 s
Overall bit rate mode : Variable
Overall bit rate : 20.2 Mb/s
Frame rate : 23.976 FPS
Movie name : SUMMERNIGHT_음악교체_확인_수정완료
Movie_More : This video is about SUMMERNIGHT_음악교체_확인_수정완료
Performer : BSP_IMACPRO
Keywords : 0514_6,Project_2,DI_0523_2,0514_1,2D_FIN_0530,2D_FIN_0528,0514_5,0514_2,0515_12,0514_8,0514_10,0514_9,0514_4,0514_11,0514_3,0514_7,0515_13,2D_FIN_0527,DI_0528
Encoded date : 2019-05-30 08:25:50 UTC
Tagged date : 2019-05-30 08:27:59 UTC
Cover type : Thumbnail

Video
ID : 2
Format : AVC
Format/Info : Advanced Video Codec
Format profile : High@L4
Format settings : CABAC / 2 Ref Frames
Format settings, CABAC : Yes
Format settings, Reference fra : 2 frames
Codec ID : avc1
Codec ID/Info : Advanced Video Coding
Duration : 4 min 7 s
Bit rate mode : Variable
Bit rate : 20.0 Mb/s
Maximum bit rate : 768 kb/s
Width : 1 920 pixels
Height : 1 080 pixels
Display aspect ratio : 16:9
Frame rate mode : Constant
Frame rate : 23.976 (24000/1001) FPS
Color space : YUV
Chroma subsampling : 4:2:0
Bit depth : 8 bits
Scan type : Progressive
Bits/(Pixel*Frame) : 0.403
Stream size : 592 MiB (99%)
Title : Core Media Video
Encoded date : 2019-05-30 08:25:50 UTC
Tagged date : 2019-05-30 08:27:59 UTC
Color range : Limited
Color primaries : BT.709
Transfer characteristics : BT.709
Matrix coefficients : BT.709
Codec configuration box : avcC

Audio
ID : 1
Format : AAC LC
Format/Info : Advanced Audio Codec Low Complexity
Codec ID : mp4a-40-2
Duration : 4 min 7 s
Source duration : 4 min 7 s
Bit rate mode : Constant
Bit rate : 128 kb/s
Channel(s) : 2 channels
Channel layout : L R
Sampling rate : 48.0 kHz
Frame rate : 46.875 FPS (1024 SPF)
Compression mode : Lossy
Stream size : 3.66 MiB (1%)
Source stream size : 3.66 MiB (1%)
Title : Core Media Audio
Language : Korean
Encoded date : 2019-05-30 08:25:50 UTC
Tagged date : 2019-05-30 08:27:59 UTC

Image
Format : JPEG
Width : 1 920 pixels
Height : 1 080 pixels
Color space : YUV
Chroma subsampling : 4:2:0
Bit depth : 8 bits
Compression mode : Lossy
Stream size : 257 KiB (0%)

资源下载
下载价格5 金币
包年VIP免费
所有资源都在百度网盘,如有链接失效、解压错误等、请联系管理微信:lgychcom
原文链接:https://www.lgych.com/69418.html,转载请注明出处。
0

评论4

请先
  1. 谢谢分享
    qingchun 2024-01-17 0
  2. 感谢分享
    chuntian 2024-01-17 0
  3. 谢谢分享!
    dongtian 2024-01-17 0
  4. 感谢分享!
    浅墨001 2024-01-17 0
叶倩文-Now'sMyPrime25周年2004金曲演唱会(DVD-ISO4.6G)
叶倩文-Now'sMyPrime25周年2004金曲演唱会(DVD-ISO4.6G)
8分钟前 有人购买 去瞅瞅看
显示验证码
没有账号?注册  忘记密码?