WJSN - As You Wish 1080P [Bugs MP4 722.4MB]

General
Complete name : I:\WJSN - As You Wish (Bugs 1080p).mp4
Format : MPEG-4
Format profile : Base Media / Version 2
Codec ID : mp42 (mp42/mp41)
File size : 772 MiB
Duration : 3 min 33 s
Overall bit rate mode : Variable
Overall bit rate : 30.4 Mb/s
Frame rate : 23.976 FPS
Encoded date : 2019-11-19 06:09:42 UTC
Tagged date : 2019-11-19 06:09:50 UTC
TIM : 00:00:00:00
TSC : 24000
TSZ : 1001

Video
ID : 1
Format : AVC
Format/Info : Advanced Video Codec
Format profile : Main@L4.1
Format settings : CABAC / 4 Ref Frames
Format settings, CABAC : Yes
Format settings, Reference fra : 4 frames
Codec ID : avc1
Codec ID/Info : Advanced Video Coding
Duration : 3 min 33 s
Bit rate : 30.0 Mb/s
Width : 1 920 pixels
Height : 1 080 pixels
Display aspect ratio : 16:9
Frame rate mode : Constant
Frame rate : 23.976 (24000/1001) FPS
Color space : YUV
Chroma subsampling : 4:2:0
Bit depth : 8 bits
Scan type : Progressive
Bits/(Pixel*Frame) : 0.604
Stream size : 763 MiB (99%)
Language : English
Encoded date : 2019-11-19 06:09:42 UTC
Tagged date : 2019-11-19 06:09:42 UTC
Color range : Limited
Color primaries : BT.709
Transfer characteristics : BT.709
Matrix coefficients : BT.709
Codec configuration box : avcC

Audio
ID : 2
Format : AAC LC
Format/Info : Advanced Audio Codec Low Complexity
Codec ID : mp4a-40-2
Duration : 3 min 33 s
Source duration : 3 min 33 s
Bit rate mode : Variable
Bit rate : 318 kb/s
Maximum bit rate : 391 kb/s
Channel(s) : 2 channels
Channel layout : L R
Sampling rate : 44.1 kHz
Frame rate : 43.066 FPS (1024 SPF)
Compression mode : Lossy
Stream size : 8.07 MiB (1%)
Source stream size : 8.07 MiB (1%)
Language : English
Encoded date : 2019-11-19 06:09:42 UTC
Tagged date : 2019-11-19 06:09:42 UTC

资源下载
下载价格5 金币
包年VIP免费
所有资源都在百度网盘,如有链接失效、解压错误等、请联系管理微信:lgychcom
原文链接:https://www.lgych.com/69795.html,转载请注明出处。
0

评论5

请先
  1. 漂亮的
    1501 2023-10-15 0
  2. 谢谢分享
    qingchun 2周前 0
  3. 感谢分享
    chuntian 2周前 0
  4. 谢谢分享!
    dongtian 2周前 0
  5. 感谢分享!
    浅墨001 2周前 0
雅尼之声 2009 阿卡普尔科 墨西哥 音乐会 Yanni Voices 2009 Live From Acapulco 1080p AC3《Remux MKV 46.7G》
雅尼之声 2009 阿卡普尔科 墨西哥 音乐会 Yanni Voices 2009 Live From Acapulco 1080p AC3《Remux MKV 46.7G》
3分钟前 有人购买 去瞅瞅看
显示验证码
没有账号?注册  忘记密码?