YERIN - ARIA 4K 2160P [Bugs MP4 1.38GB]

General
Complete name : I:\YERIN - ARIA- 4K - Bugs.mp4
Format : MPEG-4
Format profile : Base Media / Version 2
Codec ID : mp42 (mp42/mp41)
File size : 1.38 GiB
Duration : 2 min 30 s
Overall bit rate mode : Variable
Overall bit rate : 78.7 Mb/s
Frame rate : 23.976 FPS
Encoded date : 2022-05-11 14:16:54 UTC
Tagged date : 2022-05-11 14:19:30 UTC
TIM : 00:00:00:00
TSC : 24000
TSZ : 1001

Video
ID : 1
Format : AVC
Format/Info : Advanced Video Codec
Format profile : Main@L5.1
Format settings : CABAC / 4 Ref Frames
Format settings, CABAC : Yes
Format settings, Reference fra : 4 frames
Codec ID : avc1
Codec ID/Info : Advanced Video Coding
Duration : 2 min 30 s
Bit rate : 78.1 Mb/s
Width : 3 840 pixels
Height : 2 160 pixels
Display aspect ratio : 16:9
Frame rate mode : Constant
Frame rate : 23.976 (24000/1001) FPS
Color space : YUV
Chroma subsampling : 4:2:0
Bit depth : 8 bits
Scan type : Progressive
Bits/(Pixel*Frame) : 0.393
Stream size : 1.37 GiB (99%)
Language : English
Encoded date : 2022-05-11 14:16:54 UTC
Tagged date : 2022-05-11 14:16:54 UTC
Color range : Limited
Color primaries : BT.709
Transfer characteristics : BT.709
Matrix coefficients : BT.709
Codec configuration box : avcC

Audio
ID : 2
Format : AAC LC
Format/Info : Advanced Audio Codec Low Complexity
Codec ID : mp4a-40-2
Duration : 2 min 30 s
Source duration : 2 min 30 s
Bit rate mode : Variable
Bit rate : 317 kb/s
Maximum bit rate : 421 kb/s
Channel(s) : 2 channels
Channel layout : L R
Sampling rate : 48.0 kHz
Frame rate : 46.875 FPS (1024 SPF)
Compression mode : Lossy
Stream size : 5.71 MiB (0%)
Source stream size : 5.71 MiB (0%)
Language : English
Encoded date : 2022-05-11 14:16:54 UTC
Tagged date : 2022-05-11 14:16:54 UTC

资源下载
下载价格5 金币
包年VIP免费
所有资源都在百度网盘,如有链接失效、解压错误等、请联系管理微信:lgychcom
原文链接:https://www.lgych.com/69906.html,转载请注明出处。
0

评论5

请先
  1. 感谢分享
    luoqi525 3周前 0
  2. 谢谢分享
    qingchun 1周前 0
  3. 感谢分享
    chuntian 1周前 0
  4. 谢谢分享!
    dongtian 1周前 0
  5. 感谢分享!
    浅墨001 1周前 0
伍佰ROCK WUBAI(1997伍佰来了)演唱会(DVD/ISO3.88G)
伍佰ROCK WUBAI(1997伍佰来了)演唱会(DVD/ISO3.88G)
1分钟前 有人购买 去瞅瞅看
显示验证码
没有账号?注册  忘记密码?