Fromis_9 - DM 4K 2160P [Master MP4 2.41GB]

General
Complete name : I:\Fromis_9 - DM【Master 2160p】.mp4
Format : MPEG-4
Format profile : Base Media / Version 2
Codec ID : mp42 (mp42/mp41)
File size : 2.41 GiB
Duration : 3 min 26 s
Overall bit rate mode : Variable
Overall bit rate : 100 Mb/s
Frame rate : 23.976 FPS
Encoded date : 2022-01-17 07:28:39 UTC
Tagged date : 2022-01-17 07:40:37 UTC
TIM : 00:00:00:00
TSC : 24000
TSZ : 1001

Video
ID : 1
Format : AVC
Format/Info : Advanced Video Codec
Format profile : High@L5.2
Format settings : CABAC / 4 Ref Frames
Format settings, CABAC : Yes
Format settings, Reference fra : 4 frames
Codec ID : avc1
Codec ID/Info : Advanced Video Coding
Duration : 3 min 26 s
Bit rate mode : Constant
Bit rate : 100.0 Mb/s
Width : 3 840 pixels
Height : 2 160 pixels
Display aspect ratio : 16:9
Frame rate mode : Constant
Frame rate : 23.976 (24000/1001) FPS
Color space : YUV
Chroma subsampling : 4:2:0
Bit depth : 8 bits
Scan type : Progressive
Bits/(Pixel*Frame) : 0.503
Stream size : 2.40 GiB (100%)
Language : English
Encoded date : 2022-01-17 07:28:49 UTC
Tagged date : 2022-01-17 07:28:49 UTC
Color range : Limited
Color primaries : BT.709
Transfer characteristics : BT.709
Matrix coefficients : BT.709
Codec configuration box : avcC

Audio
ID : 2
Format : AAC LC
Format/Info : Advanced Audio Codec Low Complexity
Codec ID : mp4a-40-2
Duration : 3 min 26 s
Source duration : 3 min 26 s
Bit rate mode : Variable
Bit rate : 317 kb/s
Maximum bit rate : 473 kb/s
Channel(s) : 2 channels
Channel layout : L R
Sampling rate : 48.0 kHz
Frame rate : 46.875 FPS (1024 SPF)
Compression mode : Lossy
Stream size : 7.81 MiB (0%)
Source stream size : 7.81 MiB (0%)
Language : English
Encoded date : 2022-01-17 07:28:45 UTC
Tagged date : 2022-01-17 07:28:45 UTC

资源下载
下载价格5 金币
包年VIP免费
所有资源都在百度网盘,如有链接失效、解压错误等、请联系管理微信:lgychcom
原文链接:https://www.lgych.com/71156.html,转载请注明出处。
0

评论4

请先
  1. 谢谢分享
    留佩1234 2023-10-24 0
  2. 谢谢分享!!
    feng0118 2023-11-08 0
  3. 感谢
    骡子在家躺 2023-11-29 0
  4. 谢谢分享
    liang4173 2023-12-06 0
张学友 - 爱与交响曲 双视角 卡拉OK [DVD ISO 4.25GB]
张学友 - 爱与交响曲 双视角 卡拉OK [DVD ISO 4.25GB]
6分钟前 有人购买 去瞅瞅看
显示验证码
没有账号?注册  忘记密码?