王心凌 Cyndi Wang - 言不由衷 Insincere 4K 2160P [WEB-DL MP4 1.17GB]

General
Complete name : H:\MV\MV\【MV】王心凌-言不由衷.mp4
Format : MPEG-4
Format profile : QuickTime
Codec ID : qt 0000.00 (qt )
File size : 1.17 GiB
Duration : 5 min 38 s
Overall bit rate : 29.7 Mb/s
Encoded date : UTC 2023-11-24 12:19:56
Tagged date : UTC 2023-11-24 12:22:12
Writing library : Apple QuickTime
com.apple.quicktime.artwork : {"data":{"edittime":49,"infoStickerId":"","is_use_relight":0,"is_use_voice_optimization":0,"motion_blur_cnt":0,"musicId":"","os":"mac","product":"lv","stickerId":"","videoEffectId":"","videoId":"2bb49f89-6863-45e8-a77f-d22228cd8971","videoParams":{"be":0,"ef":0,"ft":0,"ma":0,"me":0,"mu":0,"re":0,"sp":0,"st":0,"te":0,"tx":0,"v":0,"vs":0}},"source_type":"douyin_beauty_me"}

Video
ID : 1
Format : HEVC
Format/Info : High Efficiency Video Coding
Format profile : Main@L6.1@Main
Codec ID : hvc1
Codec ID/Info : High Efficiency Video Coding
Duration : 5 min 38 s
Bit rate : 29.6 Mb/s
Width : 4 096 pixels
Height : 1 742 pixels
Display aspect ratio : 2.35:1
Frame rate mode : Constant
Frame rate : 24.000 FPS
Color space : YUV
Chroma subsampling : 4:2:0
Bit depth : 8 bits
Bits/(Pixel*Frame) : 0.173
Stream size : 1.17 GiB (100%)
Title : Core Media Video
Encoded date : UTC 2023-11-24 12:19:56
Tagged date : UTC 2023-11-24 12:22:12
Color range : Limited
Color primaries : BT.709
Transfer characteristics : BT.709
Matrix coefficients : BT.709
Codec configuration box : hvcC

Audio
ID : 2
Format : AAC LC
Format/Info : Advanced Audio Codec Low Complexity
Codec ID : mp4a-40-2
Duration : 5 min 38 s
Source duration : 5 min 38 s
Bit rate mode : Constant
Bit rate : 128 kb/s
Channel(s) : 2 channels
Channel layout : L R
Sampling rate : 44.1 kHz
Frame rate : 43.066 FPS (1024 SPF)
Compression mode : Lossy
Stream size : 4.98 MiB (0%)
Source stream size : 4.98 MiB (0%)
Title : Core Media Audio
Encoded date : UTC 2023-11-24 12:19:56
Tagged date : UTC 2023-11-24 12:22:12

资源下载
下载价格5 金币
VIP免费
所有资源都在百度网盘,如有链接失效、解压错误等、请联系管理微信:lgychcom
原文链接:https://www.lgych.com/74216.html,转载请注明出处。
0

评论44

请先
  1. 谢谢分享
    luoqi526 2023-12-31 0
  2. 谢谢分享
    fdnl 2024-01-12 0
  3. 感谢分享
    pizvjdeewlfzt 4周前 0
  4. 感谢分享
    rgttta 2周前 0
1 2 3
四千金 - 千金庆新年[KTV][DVD-ISO][899.25MB]
四千金 - 千金庆新年[KTV][DVD-ISO][899.25MB]
刚刚 有人购买 去瞅瞅看
显示验证码
没有账号?注册  忘记密码?