大卫 佛斯特回归2011好友们的音乐飨宴 Hit Man Returns: David Foster & Friends《BDMV 41.3G》

David Foster & Friends - Hit Man 1080i Blu-ray AVC DTS-HD MA5.1
英文片名:Hit Man Returns: David Foster & Friends
中文片名:大卫 佛斯特回归2011好友们的音乐飨宴 (2010)
类       型:音乐
地       区:美国
文件大小:41.11 GB, 蓝光原盘 1080i
文件格式:BDMV/AVC
音       轨:英语 DTS-HDMA 5.1
英       语:LPCM 2.0
字       幕:无字幕

cover

简介:

15座葛莱美大奖得主、「音乐教父」大卫佛斯特 继2008年的“大卫佛斯特与好友们的音乐飨宴”大获好评之后,再度重金打造最最精@精彩的巨星闪耀音乐盛会! 史上无敌的超强阵容 麦可伯特恩、肯尼吉、席尔、肯尼罗根斯、娜坦莉高、夏卡康、唐娜桑玛、 球风火合唱团、合而为一合唱团、尼欧、夏芮丝、玛汀娜、洁姬伊凡科…等 网罗逾20位的老中青少四代跨界巨星 精彩不断、高潮迭起! 惠妮休斯顿「I Will Always Love You」、席琳狄翁「Because You Loved Me」、唐妮布蕾斯顿「Unbreak My Heart」、玛丹娜「You’ll See」…这些巨星获奖无数的冠军歌谣,全都是由「音乐教父」大卫佛斯特所经手打造的,其纵横乐坛40年,不仅已拿下15座葛莱美大奖(其中包含3度拿下「年度u作人」的头衔), 3度入围奥斯卡金像奖、囊括1座金球奖「最佳原创电影歌曲(The Prayer)」,并于2010年成为「创作名人殿堂」终身会员!

演出曲目:

01. David Foster With Brian Boitano and Kristi Yamaguchi "Winter Games" [4:55]

02. Kenny Loggins / Kenny G " Heart to Heart" [4:56]

03. Kenny Loggins "Forever" [5:14]

04. Gary Wright "Dream Weaver" [4:40]

05. Chaka Khan "Through the Fire" [4:52]

06. All-4-One "I Can Love You Like That" [3:08]

07. All-4-One "I Swear" [3:40]

08. Natalie Cole / Ruben Studdard "When I Fall in Love" [5:03]

09. Natalie Cole "This Will Be" [4:11]

10. Jackie Evancho "Pie Jesu" [3:06]

11. Jackie Evancho "O Mio Bambino Caro" [3:40]

12. The Canadian Tenors "Because We Believe" [4:33]

13. Seal "Secret" [4:05]

14. Michael Bolton / Seal "When a Man Loves a Woman" [2:25]

15. Michael Bolton / Seal "It's a Man's Man's Man's World" [3:36]

16. Chaka Khan "I'm Every Woman" [3:31]

17. Earth, Wind & Fire "In the Stone" [2:18]

18. Earth, Wind & Fire "September" [3:35]

19. Earth, Wind & Fire "After the Love Has Gone" [4:50]

20. Lara Fabian "Caruso" [5:31]

21. Orson Bean, Megan Hilty, Kathryn Joosten, and Mark Masri "Say You Remember It" (From "Betty Boop: The Musical") [5:34]

22. Ne-Yo "Miss Independent" [5:20]

23. Ne-Yo / Charice / Robert Randolph "Earth Song" [5:06]

24. Martina McBride "Smile" [3:43]

25. Martina McBride "We've Got Tonight" [4:41]

26. Ruben Studdard "Home" [5:46]

27. Charice "To Love You More" [5:11]

28. Charice "All by Myself" [5:07]

29. Lara Fabian / Michael Bolton "The Prayer" [5:39]

30. Donna Summer / Seal "Unbreak My Heart" [2:13]

31. Donna Summer / Seal "Crazy" [2:30]

32. Donna Summer / Seal "On the Radio" [3:43]

33. Donna Summer "Last Dance" [5:53]

======================================================

Complete name : David Foster & Friends - Hit Man 1080i Blu-ray AVC DTS-HD MA5.1 大卫 佛斯特回归2011好友们的音乐飨宴\BDMV\PLAYLIST\00005.mpls
Format : Blu-ray Playlist
File size : 832 Bytes
Duration : 2 h 1 min
Overall bit rate mode : Variable
Overall bit rate : 1 b/s

Video #1
ID : 4113 (0x1011)
Menu ID : 1 (0x1)
Format : AVC
Format/Info : Advanced Video Codec
Format profile : High@L4.1
Format settings : CABAC / 4 Ref Frames
Format settings, CABAC : Yes
Format settings, Reference fra : 4 frames
Codec ID : 27
Duration : 1 h 8 min
Bit rate mode : Variable
Maximum bit rate : 38.0 Mb/s
Width : 1 920 pixels
Height : 1 080 pixels
Display aspect ratio : 16:9
Frame rate : 29.970 (30000/1001) FPS
Standard : NTSC
Color space : YUV
Chroma subsampling : 4:2:0
Bit depth : 8 bits
Scan type : MBAFF
Scan type, store method : Interleaved fields
Scan order : Top Field First
Color range : Limited
Color primaries : BT.709
Transfer characteristics : BT.709
Matrix coefficients : BT.709
format_identifier : HDMV
Source : 00000.m2ts

Video #2
ID : 4113 (0x1011)
Menu ID : 1 (0x1)
Format : AVC
Format/Info : Advanced Video Codec
Format profile : High@L4.1
Format settings : CABAC / 4 Ref Frames
Format settings, CABAC : Yes
Format settings, Reference fra : 4 frames
Codec ID : 27
Duration : 52 min 41 s
Bit rate mode : Variable
Maximum bit rate : 38.0 Mb/s
Width : 1 920 pixels
Height : 1 080 pixels
Display aspect ratio : 16:9
Frame rate : 29.970 (30000/1001) FPS
Standard : NTSC
Color space : YUV
Chroma subsampling : 4:2:0
Bit depth : 8 bits
Scan type : MBAFF
Scan type, store method : Interleaved fields
Scan order : Top Field First
Color range : Limited
Color primaries : BT.709
Transfer characteristics : BT.709
Matrix coefficients : BT.709
format_identifier : HDMV
Source : 00001.m2ts

Audio #1
ID : 4352 (0x1100)
Menu ID : 1 (0x1)
Format : PCM
Format settings : Big / Signed
Muxing mode : Blu-ray
Codec ID : 128
Duration : 1 h 8 min
Bit rate mode : Constant
Bit rate : 2 304 kb/s
Channel(s) : 2 channels
Channel layout : L R
Sampling rate : 48.0 kHz
Bit depth : 24 bits
Stream size : 1.10 GiB
Language : English
format_identifier : HDMV
Source : 00000.m2ts

Audio #2
ID : 4353 (0x1101)
Menu ID : 1 (0x1)
Format : DTS XLL
Format/Info : Digital Theater Systems
Commercial name : DTS-HD Master Audio
Muxing mode : Stream extension
Codec ID : 134
Duration : 1 h 8 min
Bit rate mode : Variable
Channel(s) : 6 channels
Channel layout : C L R Ls Rs LFE
Sampling rate : 48.0 kHz
Frame rate : 93.750 FPS (512 SPF)
Bit depth : 24 bits
Compression mode : Lossless
Language : English
Source : 00000.m2ts

Audio #3
ID : 4352 (0x1100)
Menu ID : 1 (0x1)
Format : PCM
Format settings : Big / Signed
Muxing mode : Blu-ray
Codec ID : 128
Duration : 52 min 41 s
Bit rate mode : Constant
Bit rate : 2 304 kb/s
Channel(s) : 2 channels
Channel layout : L R
Sampling rate : 48.0 kHz
Bit depth : 24 bits
Stream size : 868 MiB
Language : English
format_identifier : HDMV
Source : 00001.m2ts

Audio #4
ID : 4353 (0x1101)
Menu ID : 1 (0x1)
Format : DTS XLL
Format/Info : Digital Theater Systems
Commercial name : DTS-HD Master Audio
Muxing mode : Stream extension
Codec ID : 134
Duration : 52 min 41 s
Bit rate mode : Variable
Channel(s) : 6 channels
Channel layout : C L R Ls Rs LFE
Sampling rate : 48.0 kHz
Frame rate : 93.750 FPS (512 SPF)
Bit depth : 24 bits
Compression mode : Lossless
Language : English
Source : 00001.m2ts

Menu
00:00:00.000 : Chapter 1
00:01:17.043 : Chapter 2
00:04:45.318 : Chapter 3
00:06:36.596 : Chapter 4
00:08:02.648 : Chapter 5
00:11:44.336 : Chapter 6
00:14:07.780 : Chapter 7
00:17:34.653 : Chapter 8
00:18:57.769 : Chapter 9
00:22:50.168 : Chapter 10
00:25:59.858 : Chapter 11
00:29:35.240 : Chapter 12
00:33:31.909 : Chapter 13
00:35:03.301 : Chapter 14
00:40:08.005 : Chapter 15
00:43:27.037 : Chapter 16
00:45:55.152 : Chapter 17
00:48:35.812 : Chapter 18
00:50:11.742 : Chapter 19
00:54:07.477 : Chapter 20
00:58:31.641 : Chapter 21
01:03:43.219 : Chapter 22

资源下载
下载价格25 金币
终身VIP免费
所有资源都在百度网盘,如有链接失效、解压错误等、请联系管理微信:lgychcom
原文链接:https://www.lgych.com/9690.html,转载请注明出处。
0

评论314

请先
  1. 感谢分享
    myway010 2023-12-12 0
  2. 这个系列要是一直做下去也挺好
    myway010 2023-12-25 0
  3. 音乐教父
    ywmwx 2024-01-12 0
  4. 值得擁有
    天涯明月刀1986 2024-01-13 0
  5. 感谢楼主的分享,辛苦了!
    醒着做梦LP 2024-01-31 0
  6. 谢谢分享
    atelier0807已购买 2024-02-04 0
  7. 很棒的资源te1
    2024-02-15 0
  8. 感谢分享48i
    2024-02-15 0
  9. 谢谢分享
    yxdqq1 2024-03-11 0
  10. 这个系列要是一直做下去也挺好
    30372513 2024-04-08 0
  11. 感谢分享
    DCPRO 2024-04-08 0
  12. 2008年拉斯维加斯的演唱会名歌手多
    15052210733已购买 4周前 0
1 14 15 16
显示验证码
没有账号?注册  忘记密码?