麦当娜 忏悔之旅伦敦演唱会 完整版 Madonna: The Confessions Tour《MKV 17.3G》

中文名: 麦当娜忏悔之旅06演唱会伦敦站

英文名: The Confessions Tour Live from London

歌手: Madonna(麦当娜)
.
资源格式: HD

发行时间: 2006年

地区: 美国

语言: 英语

 

内容介绍:

踏入二千年以来,Madonna这位已「女人四十」的流行音乐天后似乎有一种愈战愈勇之势。2005年,Madonna在出版过一张以Future Disco为大前提的Confessions On A Dance Floor专辑(也是其第十张专辑)、重拾她的Dancing Queen / Queen Of Clubland姿态后,再引伸出是两款她的DVD录像出品:先是为其04年Reinvention Tour拍摄的纪录片I’m Going To Tell You A Secret在去年面世,继而是在这个07年初推出的现场演出影片The Confessions Tour。两者同是由合作多时的Jonas Akerlund执导摄製。她的乐迷绝对不愁寂寞吧。
在The Confessions Tour内,收录了Madonna在2006年的Confessions Tour世界性巡迴演出在英国伦敦Wembley Arena举行的一站,共三场音乐会,最后一晚(8月16日)演出,正是她的四十八岁生辰,故也别有纪念性意义。
早已得悉她的Confessions Tour是何等精采绝伦。而毋庸置疑,这张The Confessions Tour的DVD,亦是那么叫人为之目不遐给。变化多端的舞台(包括令到由Stuart Price担任音乐总监的伴奏乐团可以「神出鬼没」),精湛而慑人的录像投射,加上舞蹈员的配合,达至每首歌曲的表演皆有不同的Setting配套。现在在DVD里,又不时重新将本来的录像投射与舞台的画面加以重迭,效果更嘆为观止。后期製作的出色乃毋庸置疑。
开场曲Future Lovers跟重玩Donna Summer的1977年Euro-Disco名曲I Feel Love水乳交融而来,加上身穿骑马服的Madonna与舞蹈员带来充满S&M意味的演出,已够先声夺人。每首歌曲,都附上不同的舞台表演环节,如Like A Virgin里的「骑马舞」,Jump里舞蹈员的体操舞蹈,Confessions的舞蹈员读白,Live To Tell里那备受争议的钉十字架场面(背后的数字是要道出在非洲爱滋病令到一千二百万名儿童成为孤儿并带出连串关注非洲儿童的信息再以马太福音作结——为音乐会最触动心灵、发人深省的一曲),Forbidden Love的两男一女「缠手舞」,Isaac的号角前奏,Sorry把舞台变成街头,Music Inferno的滚轴溜冰,在视觉上已令人留下深刻印象。
音乐会里有三首歌曲可看到Madonna弹奏结他。玩出I Love New York这首Disco-Punk曲目的时候,她背著电结他出场带来介乎The Stooges与Post-Punk式之间的结他Riff与製造Feedback,台上投映出纽约市曼哈顿的空中轮廓线,非常之酷;未段Madonna不断敲打结他时,镜头便做出地动山摇的效果,甚为震憾呢。跟著再玩了Ray Of Light。后来她又弹奏木结他与Issac Sinwani合唱Paradise (Not For Me)。来到尾段,便玩尽劲歌热舞的主题。在Erotica时娜姐换上白色紧身舞衣出场,La Isla Bonita在流丽的Flamenco结他下她大喊”It’s time to put on your dancing shoes!”把舞台变成狂热舞会;Lucky Star娜姐在紧身舞衣上披上印有”Dancing Queen”字样斗篷先向Abba致敬,末段已穿插著Abba的79年名曲Gimme!Gimme!Gimme!(A Man After Midnight)的前奏Sample,随即便引伸出结幕曲Hung Up,亦成为整场音乐会的高潮位,全场大合唱:”Time goes by….so slowly”。
Stuart Price(aka Jacques Lu Cont)的音乐总监角色固然功不可没,经他重新编曲下,为Madonna的歌曲重新注入舞池动能,甚至像Like A Virgin和Lucky Star等廿三、四年前的曲目,都变身成摩登的Electro-Disco House舞曲。1983、84年,Madonna初露锋芒的年代,小Stuart才得六、七岁咋。

F:\Madonna.The.Confessions.Tour.1080p.mkv
General
Unique ID : 175492114328788659457809734152824719023 (0x84068D42B2695E55A79EFAF3390286AF)
Complete name : F:\Madonna.The.Confessions.Tour.1080p.mkv
Format : Matroska
Format version : Version 2
File size : 17.3 GiB
Duration : 2h 1mn
Overall bit rate mode : Variable
Overall bit rate : 20.4 Mbps
Movie name : Madonna: The Confessions Tour1080p
Encoded date : UTC 2013-10-06 09:55:47
Writing application : mkvmerge v5.6.0 ('Kenya Kane') built on May 27 2012 16:44:04
Writing library : libebml v1.2.3 + libmatroska v1.3.0
Attachment : Yes
Video #1
ID : 1
Format : AVC
Format/Info : Advanced Video Codec
Format profile : High@L4.1
Format settings, CABAC : Yes
Format settings, ReFrames : 4 frames
Codec ID : V_MPEG4/ISO/AVC
Duration : 2h 1mn
Bit rate mode : Variable
Bit rate : 16.9 Mbps
Maximum bit rate : 40.0 Mbps
Width : 1 920 pixels
Height : 1 080 pixels
Display aspect ratio : 16:9
Frame rate mode : Constant
Frame rate : 25.000 fps
Color space : YUV
Chroma subsampling : 4:2:0
Bit depth : 8 bits
Scan type : Progressive
Bits/(Pixel*Frame) : 0.327
Stream size : 14.3 GiB (83%)
Title : Madonna: The Confessions Tour1080p
Writing library : x264 core 130 r2273 b3065e6
Encoding settings : cabac=1 / ref=4 / deblock=1:-3:-3 / analyse=0x3:0x133 / me=umh / subme=9 / psy=1 / psy_rd=1.00:0.15 / mixed_ref=1 / me_range=32 / chroma_me=1 / trellis=2 / 8x8dct=1 / cqm=0 / deadzone=21,11 / fast_pskip=1 / chroma_qp_offset=-3 / threads=3 / lookahead_threads=1 / sliced_threads=0 / slices=4 / nr=0 / decimate=1 / interlaced=0 / bluray_compat=1 / constrained_intra=0 / bframes=3 / b_pyramid=0 / b_adapt=2 / b_bias=0 / direct=3 / weightb=1 / open_gop=1 / weightp=1 / keyint=25 / keyint_min=1 / scenecut=40 / intra_refresh=0 / rc_lookahead=25 / rc=crf / mbtree=0 / crf=18.0 / qcomp=0.60 / qpmin=0 / qpmax=51 / qpstep=4 / vbv_maxrate=40000 / vbv_bufsize=30000 / crf_max=0.0 / nal_hrd=vbr / ip_ratio=1.40 / pb_ratio=1.30 / aq=1:1.00
Language : English
Default : Yes
Forced : No
Color primaries : BT.709
Transfer characteristics : BT.709
Matrix coefficients : BT.709
Audio #2
ID : 2
Format : DTS
Format/Info : Digital Theater Systems
Mode : 16
Format settings, Endianness : Big
Codec ID : A_DTS
Duration : 2h 1mn
Bit rate mode : Constant
Bit rate : 1 510 Kbps
Channel count : 6 channels
Channel positions : Front: L C R, Side: L R, LFE
Sampling rate : 48.0 KHz
Bit depth : 24 bits
Compression mode : Lossy
Stream size : 1.28 GiB (7%)
Title : DTS 5.1_V_ATAKy
Language : English
Default : Yes
Forced : No
Audio #3
ID : 3
Format : DTS
Format/Info : Digital Theater Systems
Mode : 16
Format settings, Endianness : Big
Codec ID : A_DTS
Duration : 2h 1mn
Bit rate mode : Constant
Bit rate : 1 589 Kbps
Channel count : 2 channels
Channel positions : Front: L R
Sampling rate : 48.0 KHz
Bit depth : 16 bits
Compression mode : Lossy
Stream size : 1.35 GiB (8%)
Title : DTS_2.0_V_ATAKy
Language : English
Default : No
Forced : No
Menu
00:00:00.000 : en:01 - Future Lovers
00:01:57.000 : en:02 - I Feel Love
00:08:03.960 : en:03 - Get Together
00:13:23.520 : en:04 - Like A Virgin
00:17:32.480 : en:05 - Jump
00:22:28.880 : en:06 - Dancers' Confessions
00:26:23.920 : en:07 - Live To Tell
00:31:34.480 : en:08 - Forbidden Love
00:35:59.320 : en:09 - Isaac
00:42:45.120 : en:10 - Sorry
00:47:47.080 : en:11 - Like It Or Not
00:52:38.640 : en:12 - Sorry (Remix)
00:56:15.880 : en:13 - I Love New York
01:01:59.520 : en:14 - Ray Of Light
01:08:25.920 : en:15 - Let It Will Be
01:15:58.280 : en:16 - Drowned World/Substitute For Love
01:20:58.080 : en:17 - Paradise (Not For Me)
01:26:03.880 : en:18 - Music Inferno
01:33:53.080 : en:19 - Erotica
01:38:40.640 : en:20 - La Isla Bonita
01:43:43.120 : en:21 - Lucky Star
01:48:19.560 : en:22 - Hung Up
01:57:44.000 : en:23 - Credits

资源下载
下载价格10 金币
包季VIP免费
所有资源都在百度网盘,如有链接失效、解压错误等、请联系管理微信:lgychcom
原文链接:https://www.lgych.com/14421.html,转载请注明出处。
3

评论269

请先
  1. 谢谢分享
    luoqi522 2024-02-21 0
  2. 谢谢分享
    yxdqq1 2024-02-23 0
  3. 谢谢分享
    asmewish 2024-03-20 0
  4. 谢谢分享
    yjvj26已购买 2024-04-19 0
  5. 喜欢麦当娜的歌
    zhao san 3周前 0
  6. 要是有正式蓝光原盘就好了
    zhao san 3周前 0
  7. 谢谢分享
    95516165已购买 2周前 0
  8. 谢谢分享
    crazyzx 6天前 0
  9. 谢谢分享
    luoqi525 4天前 0
1 12 13 14
显示验证码
没有账号?注册  忘记密码?