CHAGE and ASKA 25th Anniversary Special Live 2005《BDrip MKV 14.7G》

[滤镜使用列表]
(1) Built-in MKV Source
(2) Built-in Video Codec/Transform
(3) Enhanced Video Renderer(Custom Present)
(4) Built-in Audio Codec/Transform
(5) DirectSound Audio Renderer

[视频信息]
视频编码: AVC1 - 内置 FFmpeg 解码器(h264, Thread Frame)
输入格式: AVC1(24 bits)
输入尺寸: 1920 × 1080(1.78:1)
输出格式: NV12(12 bits)
输出尺寸: 1920 × 1080(1.78:1)
帧率: 29.97
BitRate: 未知

[音频信息]
音频编码: DTS(0x2001) - FFmpegMininum64.dll(dca)
采样率: 48000 -> 48000 Hz
位率: 0 -> 16 位
声道数: 6 -> 2 声道
Bitrate: 1509 kbps

General
Unique ID : 183230699337408931454893782272516528289 (0x89D8F2F57F558FE18279DC60071B98A1)
Complete name : I:\CHA-2005-14.7\CHAGE.and.ASKA.25th.Anniversary.Special.Live.2005.BluRay.1080p.DTS.x264-CHD\CHAGE.and.ASKA.25th.Anniversary.Special.Live.BluRay.1080p.DTS.x264-CHD.mkv
Format : Matroska
Format version : Version 2
File size : 14.6 GiB
Duration : 2 h 24 min
Overall bit rate : 14.5 Mb/s
Encoded date : UTC 2012-06-21 01:04:17
Writing application : mkvmerge v5.4.0 ('Piper') built on Mar 10 2012 13:34:39
Writing library : libebml v1.2.3 + libmatroska v1.3.0

Video
ID : 1
Format : AVC
Format/Info : Advanced Video Codec
Format profile : High@L4.1
Format settings : CABAC / 4 Ref Frames
Format settings, CABAC : Yes
Format settings, Reference fra : 4 frames
Codec ID : V_MPEG4/ISO/AVC
Duration : 2 h 24 min
Bit rate : 13.0 Mb/s
Width : 1 920 pixels
Height : 1 080 pixels
Display aspect ratio : 16:9
Frame rate mode : Constant
Frame rate : 29.970 FPS
Color space : YUV
Chroma subsampling : 4:2:0
Bit depth : 8 bits
Scan type : Progressive
Bits/(Pixel*Frame) : 0.209
Stream size : 12.8 GiB (88%)
Title : CHAGE and ASKA 25th Anniversary Special Live
Writing library : x264 core 123 r2184+681M 5d72658
Encoding settings : cabac=1 / ref=4 / deblock=1:-3:-3 / analyse=0x3:0x113 / me=umh / subme=10 / psy=1 / fade_compensate=0.00 / psy_rd=1.05:0.10 / mixed_ref=1 / me_range=48 / chroma_me=1 / trellis=2 / 8x8dct=1 / cqm=0 / deadzone=21,11 / fast_pskip=0 / chroma_qp_offset=-2 / threads=12 / sliced_threads=0 / nr=0 / decimate=1 / interlaced=0 / bluray_compat=0 / constrained_intra=0 / fgo=0 / bframes=6 / b_pyramid=2 / b_adapt=2 / b_bias=0 / direct=3 / weightb=1 / open_gop=0 / weightp=2 / keyint=250 / keyint_min=25 / scenecut=40 / intra_refresh=0 / rc_lookahead=60 / rc=2pass / mbtree=0 / bitrate=13000 / ratetol=2.0 / qcomp=0.70 / qpmin=0 / qpmax=69 / qpstep=4 / cplxblur=20.0 / qblur=0.5 / vbv_maxrate=35000 / vbv_bufsize=30000 / nal_hrd=none / ip_ratio=1.40 / pb_ratio=1.30 / aq=2:1.00
Language : Japanese
Default : Yes
Forced : No
Color range : Limited
Color primaries : BT.709
Transfer characteristics : BT.709
Matrix coefficients : BT.709

Audio
ID : 2
Format : DTS
Format/Info : Digital Theater Systems
Codec ID : A_DTS
Duration : 2 h 24 min
Bit rate mode : Constant
Bit rate : 1 509 kb/s
Channel(s) : 6 channels
Channel layout : C L R Ls Rs LFE
Sampling rate : 48.0 kHz
Frame rate : 93.750 FPS (512 SPF)
Bit depth : 24 bits
Compression mode : Lossy
Stream size : 1.52 GiB (10%)
Title : Japanese DTS-HDMA core 5.1 1509Kbps
Language : Japanese
Default : Yes
Forced : No

Menu
00:00:00.000 : en:00:00:00.000
00:01:13.607 : en:00:01:13.607
00:06:45.171 : en:00:06:45.171
00:11:57.917 : en:00:11:57.917
00:16:05.264 : en:00:16:05.264
00:20:03.169 : en:00:20:03.169
00:24:08.347 : en:00:24:08.347
00:30:43.408 : en:00:30:43.408
00:34:50.755 : en:00:34:50.755
00:39:11.349 : en:00:39:11.349
00:45:19.116 : en:00:45:19.116
01:00:36.233 : en:01:00:36.233
01:05:35.431 : en:01:05:35.431
01:06:58.781 : en:01:06:58.781
01:12:43.192 : en:01:12:43.192
01:18:39.715 : en:01:18:39.715
01:25:50.145 : en:01:25:50.145
01:30:12.440 : en:01:30:12.440
01:34:27.328 : en:01:34:27.328
01:40:39.800 : en:01:40:39.800
01:46:08.762 : en:01:46:08.762
01:52:16.730 : en:01:52:16.730
02:00:49.809 : en:02:00:49.809
02:07:54.734 : en:02:07:54.734
02:09:35.101 : en:02:09:35.101
02:14:41.573 : en:02:14:41.573

资源下载此资源下载价格为5金币,VIP免费,请先
所有资源都在百度网盘,如有链接失效、解压错误等、请联系管理微信:aimuvv
资源下载
下载价格5 金币
VIP免费
所有资源都在百度网盘,如有链接失效、解压错误等、请联系管理微信:aimuvv

原文链接:https://www.lgych.com/40559.html,转载请注明出处。

0

评论155

请先

  1. 很给力!
    bobiti2622 2022-05-29 0
  2. 谢谢分享!
    user_zbz 2022-06-01 0
  3. 谢谢分享
    zhangzhang 2022-06-03 0
  4. 谢谢分享
    awccn8888 2022-06-23 0
  5. 谢谢分享
    Handsche 2022-07-11 0
  6. 皮皮巴巴多谢分享!皮皮巴巴多谢分享!皮皮巴巴多谢分享!皮皮巴巴多谢分享!
    路遥知马丽 2022-07-11 0
  7. 谢谢分享!
    hym9711 4周前 0
  8. 谢谢分享!351
    hymhym 4周前 0
  9. 谢谢分享!
    huyiming249 4周前 0
  10. 谢谢分享!
    971145 4周前 0
  11. 谢谢分享。。
    Hakku 4周前 0
  12. 感谢楼主无私奉献
    lijinqiao2020 2周前 0
1 6 7 8
华语蓝光合集 252部11T资源终极收藏!支持硬盘拷贝:https://www.lgych.com/cnbd/
显示验证码
没有账号? 注册  忘记密码?