Yu Serizawa 1st Live Tour 2019 ~ViVid~《BDrip MKV 11.5G》

[滤镜使用列表]
(1) Built-in MKV Source
(2) Built-in Video Codec/Transform
(3) Enhanced Video Renderer(Custom Present)
(4) Built-in Audio Codec/Transform
(5) DirectSound Audio Renderer

[视频信息]
视频编码: AVC1 - 内置 FFmpeg 解码器(h264, Thread Frame)
输入格式: AVC1(24 bits)
输入尺寸: 1920 × 1080(1.78:1)
输出格式: NV12(12 bits)
输出尺寸: 1920 × 1080(1.78:1)
帧率: 23.976
BitRate: 未知

[音频信息]
音频编码: FLAC Framed(0xf1ac) - OpenCodec(FLAC Decoder)
采样率: 48000 -> 48000 Hz
位率: 24 -> 16 位
声道数: 2 -> 2 声道
Bitrate: 2304 kbps

General
Unique ID : 199100274042401095775578195596454773954 (0x95C9516692CD0393BCC1A469FF7DC4C2)
Complete name : I:\YUS-2019-11.5\[sere] Yu Serizawa 1st Live Tour 2019 ~ViVid~ [B7060697].mkv\[sere] Yu Serizawa 1st Live Tour 2019 ~ViVid~ [B7060697].mkv
Format : Matroska
Format version : Version 4
File size : 11.6 GiB
Duration : 2 h 15 min
Overall bit rate mode : Variable
Overall bit rate : 12.2 Mb/s
Encoded date : UTC 2020-06-17 17:58:57
Writing application : mkvmerge v45.0.0 ('Heaven in Pennies') 64-bit
Writing library : libebml v1.3.10 + libmatroska v1.5.2

Video
ID : 1
Format : AVC
Format/Info : Advanced Video Codec
Format profile : High 10@L5.1
Format settings : CABAC / 16 Ref Frames
Format settings, CABAC : Yes
Format settings, Reference fra : 16 frames
Codec ID : V_MPEG4/ISO/AVC
Duration : 2 h 15 min
Bit rate : 10.4 Mb/s
Width : 1 920 pixels
Height : 1 080 pixels
Display aspect ratio : 16:9
Frame rate mode : Constant
Frame rate : 23.976 (24000/1001) FPS
Color space : YUV
Chroma subsampling : 4:2:0
Bit depth : 10 bits
Scan type : Progressive
Bits/(Pixel*Frame) : 0.209
Stream size : 9.89 GiB (85%)
Writing library : x264 core 159 r2991+12 ebdf32b (naoLmod) [N4O Build@All-x64] (naoLmod)
Encoding settings : cabac=1 / ref=16 / deblock=1:-1:-1 / analyse=0x3:0x133 / me=umh / subme=10 / psy=1 / fade_compensate=0.00 / psy_rd=0.85:0.00 / mixed_ref=1 / me_range=28 / chroma_me=1 / trellis=2 / 8x8dct=1 / cqm=0 / deadzone=21,11 / fast_pskip=0 / chroma_qp_offset=-4 / threads=12 / lookahead_threads=3 / sliced_threads=0 / nr=0 / decimate=0 / interlaced=0 / bluray_compat=0 / constrained_intra=0 / bframes=16 / b_pyramid=2 / b_adapt=2 / b_bias=0 / direct=3 / weightb=1 / open_gop=0 / weightp=2 / keyint=250 / keyint_min=23 / scenecut=40 / intra_refresh=0 / rc_lookahead=60 / rc=crf / mbtree=1 / crf=16.0000 / qcomp=0.75 / qpmin=0 / qpmax=81 / qpstep=4 / ip_ratio=1.40 / aq=3:0.80
Default : Yes
Forced : No
Color range : Limited
Matrix coefficients : BT.709

Audio
ID : 2
Format : FLAC
Format/Info : Free Lossless Audio Codec
Codec ID : A_FLAC
Duration : 2 h 15 min
Bit rate mode : Variable
Bit rate : 1 790 kb/s
Channel(s) : 2 channels
Channel layout : L R
Sampling rate : 48.0 kHz
Frame rate : 11.719 FPS (4096 SPF)
Bit depth : 24 bits
Compression mode : Lossless
Stream size : 1.70 GiB (15%)
Writing library : libFLAC 1.3.2 (UTC 2017-01-01)
Default : Yes
Forced : No

资源下载此资源下载价格为5金币,VIP免费,请先
所有资源都在百度网盘,如有链接失效、解压错误等、请联系管理微信:aimuvv
资源下载
下载价格5 金币
VIP免费
所有资源都在百度网盘,如有链接失效、解压错误等、请联系管理微信:aimuvv

原文链接:https://www.lgych.com/40618.html,转载请注明出处。

0

评论179

请先

  1. 谢谢分享
    daniao 2022-06-10 0
  2. 谢谢分享
    awccn8888 2022-06-23 0
  3. 谢谢分享
    winner08888 2022-06-29 0
  4. 感谢分享
    Handsche 2022-07-10 0
  5. 多谢分享!
    q7886650 2022-07-10 0
  6. 多谢分享!
    Hkys 2022-07-10 0
  7. 多谢分享!
    a7886650 2022-07-10 0
  8. 皮皮巴巴多谢分享!皮皮巴巴多谢分享!皮皮巴巴多谢分享!皮皮巴巴多谢分享!
    春天来了 2022-07-11 0
  9. 好,谢谢分享
    hym9711 4周前 0
  10. 谢谢分享\
    hymhym 4周前 0
  11. 谢谢分享
    huyiming249 4周前 0
  12. 谢谢分享↖
    971145 4周前 0
  13. 多谢分享
    Hakku 4周前 0
1 7 8 9
华语蓝光合集 252部11T资源终极收藏!支持硬盘拷贝:https://www.lgych.com/cnbd/
显示验证码
没有账号? 注册  忘记密码?