FJ + FJY ~Yuki Kajiura LIVE vol.#4 PART I&II~ Everlasting Songs Tour 2009《BDrip MKV 14.9G》

[滤镜使用列表]
(1) Built-in MKV Source
(2) Built-in Video Codec/Transform
(3) Enhanced Video Renderer(Custom Present)
(4) Built-in Audio Codec/Transform
(5) DirectSound Audio Renderer

[视频信息]
视频编码: AVC1 - 内置 FFmpeg 解码器(h264, Thread Frame)
输入格式: AVC1(24 bits)
输入尺寸: 1920 × 1080(1.78:1)
输出格式: NV12(12 bits)
输出尺寸: 1920 × 1080(1.78:1)
帧率: 29.97
BitRate: 未知

[音频信息]
音频编码: FLAC Framed(0xf1ac) - OpenCodec(FLAC Decoder)
采样率: 48000 -> 48000 Hz
位率: 24 -> 16 位
声道数: 2 -> 2 声道
Bitrate: 2304 kbps

General
Unique ID : 232884532506466397311735429236370169742 (0xAF33EDF200185C29B3B8A5DFB1E3DF8E)
Complete name : J:\FJF-2009-14.9\FJ + FJY ~Yuki Kajiura LIVE vol.#4 PART I&II~ Everlasting Songs Tour 2009\FictionJunction ~Yuki Kajiura LIVE vol.#4 PART II~ Everlasting Songs Tour 2009.mkv
Format : Matroska
Format version : Version 4
File size : 8.68 GiB
Duration : 1 h 55 min
Overall bit rate mode : Variable
Overall bit rate : 10.7 Mb/s
Movie name : FictionJunction ~Yuki Kajiura LIVE vol.#4 Part II~ Everlasting Songs Tour 2009
Encoded date : UTC 2015-04-18 15:07:58
Writing application : mkvmerge v7.8.0 ('River Man') 64bit built on Mar 27 2015 16:31:37
Writing library : libebml v1.3.1 + libmatroska v1.4.2

Video
ID : 1
Format : AVC
Format/Info : Advanced Video Codec
Format profile : High@L5.1
Format settings : CABAC / 16 Ref Frames
Format settings, CABAC : Yes
Format settings, Reference fra : 16 frames
Codec ID : V_MPEG4/ISO/AVC
Duration : 1 h 55 min
Bit rate : 9 000 kb/s
Width : 1 920 pixels
Height : 1 080 pixels
Display aspect ratio : 16:9
Frame rate mode : Constant
Frame rate : 29.970 (30000/1001) FPS
Color space : YUV
Chroma subsampling : 4:2:0
Bit depth : 8 bits
Scan type : Progressive
Bits/(Pixel*Frame) : 0.145
Stream size : 7.24 GiB (83%)
Title : FictionJunction ~Yuki Kajiura LIVE vol.#4 Part II~ Everlasting Songs Tour 2009
Writing library : x264 core 130 r2273 b3065e6
Encoding settings : cabac=1 / ref=16 / deblock=1:0:0 / analyse=0x3:0x133 / me=umh / subme=9 / psy=1 / psy_rd=0.80:0.10 / mixed_ref=1 / me_range=24 / chroma_me=1 / trellis=1 / 8x8dct=1 / cqm=0 / deadzone=21,11 / fast_pskip=0 / chroma_qp_offset=-3 / threads=6 / lookahead_threads=1 / sliced_threads=0 / nr=0 / decimate=0 / interlaced=0 / bluray_compat=0 / constrained_intra=0 / bframes=10 / b_pyramid=2 / b_adapt=2 / b_bias=0 / direct=3 / weightb=1 / open_gop=0 / weightp=2 / keyint=300 / keyint_min=29 / scenecut=40 / intra_refresh=0 / rc=2pass / mbtree=0 / bitrate=9000 / ratetol=1.0 / qcomp=0.70 / qpmin=5 / qpmax=57 / qpstep=4 / cplxblur=20.0 / qblur=0.5 / ip_ratio=1.40 / pb_ratio=1.30 / aq=1:1.00
Language : Japanese
Default : Yes
Forced : No

Audio
ID : 2
Format : FLAC
Format/Info : Free Lossless Audio Codec
Codec ID : A_FLAC
Duration : 1 h 55 min
Bit rate mode : Variable
Bit rate : 1 781 kb/s
Channel(s) : 2 channels
Channel layout : L R
Sampling rate : 48.0 kHz
Frame rate : 11.719 FPS (4096 SPF)
Bit depth : 24 bits
Compression mode : Lossless
Stream size : 1.44 GiB (17%)
Writing library : libFLAC 1.2.1 (UTC 2007-09-17)
Language : Japanese
Default : Yes
Forced : No

Menu
00:00:00.000 : ja:星屑 (Hoshikuzu)
00:07:58.078 : ja:here we stand in the morning dew
00:13:35.014 : ja:MC#1
00:15:13.679 : ja:銀の橋 (Gin no Hashi)
00:19:46.852 : ja:花守の丘 (Hanamori no Oka)
00:25:19.518 : ja:宝石 (Houseki)
00:30:07.673 : ja:MC#2
00:40:55.920 : ja:synchronicity
00:46:28.619 : ja:水の証 (Mizu no Akashi)
00:50:38.769 : ja:みちゆき (Michiyuki)
00:53:36.246 : ja:目覚め (Mezame)
01:00:08.772 : ja:salva nos
01:07:33.716 : ja:zodiacal sign
01:13:33.075 : ja:MC#3
01:15:45.207 : ja:Parallel Hearts
01:21:02.024 : ja:~Encore~
01:22:37.719 : ja:everlasting song
01:30:20.000 : ja:MC#4
01:32:38.353 : ja:ユメノツバサ (Yume no Tsubasa)
01:38:30.000 : ja:MC#5
01:42:55.536 : ja:angel gate
01:50:31.225 : ja:END ROLL

资源下载此资源下载价格为5金币,VIP免费,请先
所有资源都在百度网盘,如有链接失效、解压错误等、请联系管理微信:aimuvv
资源下载
下载价格5 金币
VIP免费
所有资源都在百度网盘,如有链接失效、解压错误等、请联系管理微信:aimuvv

原文链接:https://www.lgych.com/40744.html,转载请注明出处。

0

评论194

请先

  1. 多谢分享!
    q7886650 2022-07-10 0
  2. 多谢分享!
    Hkys 2022-07-10 0
  3. 多谢分享!
    a7886650 2022-07-10 0
  4. 皮皮巴巴多谢分享!皮皮巴巴多谢分享!皮皮巴巴多谢分享!皮皮巴巴多谢分享!
    春天来了 2022-07-11 0
  5. 可以123
    hym9711 4周前 0
  6. 谢谢分享
    hymhym 4周前 0
  7. 谢谢分享133
    huyiming249 4周前 0
  8. 谢谢分享。
    971145 4周前 0
  9. 感谢分享
    Hakku 4周前 0
1 7 8 9
华语蓝光合集 252部11T资源终极收藏!支持硬盘拷贝:https://www.lgych.com/cnbd/
显示验证码
没有账号? 注册  忘记密码?