Foo Fighters Live at Wembley Stadium 2008 1080p BluRay REMUX-DDB《Remux MKV 28.9G》

[滤镜使用列表]
(1) Built-in MKV Source
(2) Built-in Video Codec/Transform
(3) Enhanced Video Renderer(Custom Present)
(4) DirectSound Audio Renderer

[视频信息]
视频编码: AVC1 - 内置 FFmpeg 解码器(h264, Thread Frame)
输入格式: AVC1(24 bits)
输入尺寸: 1920 × 1080(1.78:1)
输出格式: NV12(12 bits)
输出尺寸: 1920 × 1080(1.78:1)
帧率: 24
BitRate: 未知

[音频信息]
音频编码: ExtPCM(0xfffe)
采样率: 48000 -> 48000 Hz
位率: 24 -> 24 位
声道数: 6 -> 6 声道
Bitrate: 6912 kbps

General
Unique ID : 140407706794261281431825324732337159126 (0x69A18A6AE85AF3D610E6FFF80B48FBD6)
Complete name : J:\8888\FOO-2008-28.9\Foo.Fighters.Live.at.Wembley.Stadium.2008.1080p.BluRay.REMUX-DDB\Foo.Fighters.Live.at.Wembley.Stadium.2008.1080p.BluRay.REMUX-DDB.mkv
Format : Matroska
Format version : Version 4
File size : 29.0 GiB
Duration : 1 h 58 min
Overall bit rate mode : Constant
Overall bit rate : 35.0 Mb/s
Movie name : Foo.Fighters.Live.at.Wembley.Stadium.2008.1080p.BluRay.REMUX-DDB
Encoded date : UTC 2019-05-26 07:16:06
Writing application : mkvmerge v30.1.0 ('Forever And More') 64-bit
Writing library : libebml v1.3.6 + libmatroska v1.4.9

Video
ID : 1
Format : AVC
Format/Info : Advanced Video Codec
Format profile : High@L4.1
Format settings : CABAC / 4 Ref Frames
Format settings, CABAC : Yes
Format settings, Reference fra : 4 frames
Codec ID : V_MPEG4/ISO/AVC
Duration : 1 h 58 min
Bit rate mode : Constant
Bit rate : 28.0 Mb/s
Nominal bit rate : 30.0 Mb/s
Width : 1 920 pixels
Height : 1 080 pixels
Display aspect ratio : 16:9
Frame rate mode : Constant
Frame rate : 24.000 FPS
Standard : NTSC
Color space : YUV
Chroma subsampling : 4:2:0
Bit depth : 8 bits
Scan type : Progressive
Bits/(Pixel*Frame) : 0.563
Stream size : 23.3 GiB (80%)
Title : Foo.Fighters.Live.at.Wembley.Stadium.2008.1080p.BluRay.REMUX-DDB
Language : English
Default : Yes
Forced : No
Color range : Limited
Color primaries : BT.709
Transfer characteristics : BT.709
Matrix coefficients : BT.709

Audio
ID : 2
Format : PCM
Format settings : Little / Signed
Codec ID : A_MS/ACM / 00000001-0000-0010-8000-00AA00389B71
Duration : 1 h 58 min
Bit rate mode : Constant
Bit rate : 6 912 kb/s / 6 912 kb/s
Channel(s) : 6 channels
Channel layout : L R C LFE Ls Rs
Sampling rate : 48.0 kHz
Frame rate : 30.000 FPS (1600 SPF)
Bit depth : 24 bits
Stream size : 5.73 GiB (20%)
Title : Foo.Fighters.Live.at.Wembley.Stadium.2008.1080p.BluRay.REMUX-DDB
Language : English
Default : Yes
Forced : No

Menu
00:00:00.000 : en:Chapter 01
00:06:30.750 : en:Chapter 02
00:11:22.666 : en:Chapter 03
00:14:55.083 : en:Chapter 04
00:18:57.500 : en:Chapter 05
00:23:06.875 : en:Chapter 06
00:24:16.916 : en:Chapter 07
00:28:03.750 : en:Chapter 08
00:32:31.416 : en:Chapter 09
00:46:49.833 : en:Chapter 10
00:52:11.083 : en:Chapter 11
00:55:49.333 : en:Chapter 12
01:01:08.625 : en:Chapter 13
01:07:22.791 : en:Chapter 14
01:11:17.541 : en:Chapter 15
01:17:30.916 : en:Chapter 16
01:25:06.833 : en:Chapter 17
01:25:53.875 : en:Chapter 18
01:31:37.083 : en:Chapter 19
01:34:38.416 : en:Chapter 20
01:38:56.375 : en:Chapter 21
01:45:23.083 : en:Chapter 22
01:46:29.625 : en:Chapter 23
01:52:51.458 : en:Chapter 24

 

资源下载
下载价格10 金币
终身VIP免费
所有资源都在百度网盘,如有链接失效、解压错误等、请联系管理微信:lgychcom
原文链接:https://www.lgych.com/40753.html,转载请注明出处。
0

评论210

请先
  1. 谢谢楼主分享38x
    2023-01-16 0
  2. 支持发展越来越好1b7
    2023-01-16 0
  3. 谢谢分享eq5
    2023-01-16 0
  4. 谢谢楼主无私奉献4mz
    2023-01-16 0
  5. 不错nir
    2023-01-16 0
  6. 很棒的资源。谢谢8rk
    2023-01-16 0
  7. 感谢分享
    bnze 2023-11-23 0
  8. 谢谢楼主分享3支持发展
    languang11 2023-12-10 0
  9. 好资源jc9
    2周前 0
  10. 很棒的资源95d
    2周前 0
1 9 10 11
杨千嬅 Let's Begin 2015 世界巡回演唱会香港红馆站 Miriam Yeung Let's Begin Concert World Tour 2015《Remux MKV 38.9G》
杨千嬅 Let's Begin 2015 世界巡回演唱会香港红馆站 Miriam Yeung Let's Begin Concert World Tour 2015《Remux MKV 38.9G》
10分钟前 有人购买 去瞅瞅看
显示验证码
没有账号?注册  忘记密码?