Foo Fighters - Super Saturday Night (Live Atlantic Station, Atlanta, GA) 2019 720P《Remux MKV 35.3G》

[滤镜使用列表]
(1) Built-in MKV Source
(2) Built-in Video Codec/Transform
(3) Enhanced Video Renderer(Custom Present)
(4) Built-in Audio Codec/Transform
(5) DirectSound Audio Renderer

[视频信息]
视频编码: AVC1 - 内置 FFmpeg 解码器(h264, Thread Frame)
输入格式: AVC1(24 bits)
输入尺寸: 1280 × 720(1.78:1)
输出格式: NV12(12 bits)
输出尺寸: 1280 × 720(1.78:1)
帧率: 59.94
BitRate: 未知

[音频信息]
音频编码: DTS(0x2001) - FFmpegMininum64.dll(dca)
采样率: 48000 -> 48000 Hz
位率: 24 -> 16 位
声道数: 6 -> 2 声道
Bitrate: 1509 kbps

General
Unique ID : 53412484777002290476856225305127494944 (0x282EDED175EC053ABA879092C1032520)
Complete name : J:\8888\FOO-2019-35.3\Foo Fighters - Super Saturday Night (Live Atlantic Station, Atlanta, GA) 2019.mkv\Foo Fighters - Super Saturday Night (Live Atlantic Station, Atlanta, GA) 2019.mkv
Format : Matroska
Format version : Version 4
File size : 35.4 GiB
Duration : 2 h 13 min
Overall bit rate mode : Variable
Overall bit rate : 37.8 Mb/s
Encoded date : UTC 2019-02-06 04:51:17
Writing application : mkvmerge v28.2.0 ('The Awakening') 64-bit
Writing library : libebml v1.3.6 + libmatroska v1.4.9

Video
ID : 1
Format : AVC
Format/Info : Advanced Video Codec
Format profile : High 4:2:2@L4.1
Format settings : 3 Ref Frames
Format settings, CABAC : No
Format settings, Reference fra : 3 frames
Codec ID : V_MPEG4/ISO/AVC
Duration : 2 h 13 min
Bit rate mode : Constant
Bit rate : 33.6 Mb/s
Nominal bit rate : 37.0 Mb/s
Width : 1 280 pixels
Height : 720 pixels
Display aspect ratio : 16:9
Frame rate mode : Constant
Frame rate : 59.940 (59940/1000) FPS
Original frame rate : 59.940 (60000/1001) FPS
Color space : YUV
Chroma subsampling : 4:2:2
Bit depth : 8 bits
Scan type : Progressive
Bits/(Pixel*Frame) : 0.609
Stream size : 31.4 GiB (89%)
Default : Yes
Forced : No
Color range : Limited
Color primaries : BT.709
Transfer characteristics : BT.709
Matrix coefficients : BT.709

Audio #1
ID : 2
Format : DTS XLL
Format/Info : Digital Theater Systems
Commercial name : DTS-HD Master Audio
Codec ID : A_DTS
Duration : 2 h 13 min
Bit rate mode : Variable
Bit rate : 3 937 kb/s
Channel(s) : 6 channels
Channel layout : C L R Ls Rs LFE
Sampling rate : 48.0 kHz
Frame rate : 93.750 FPS (512 SPF)
Bit depth : 24 bits
Compression mode : Lossless
Delay relative to video : -25 ms
Stream size : 3.68 GiB (10%)
Language : English
Default : Yes
Forced : No

Audio #2
ID : 3
Format : MPEG Audio
Format version : Version 1
Format profile : Layer 2
Format settings : Intensity Stereo + MS Stereo
Codec ID : A_MPEG/L2
Codec ID/Hint : MP2
Duration : 2 h 13 min
Bit rate mode : Constant
Bit rate : 256 kb/s
Channel(s) : 2 channels
Sampling rate : 48.0 kHz
Frame rate : 41.666 FPS (1152 SPF)
Compression mode : Lossy
Delay relative to video : -422 ms
Stream size : 245 MiB (1%)
Language : English
Default : No
Forced : No

资源下载此资源下载价格为10金币,VIP免费,请先
所有资源都在百度网盘,如有链接失效、解压错误等、请联系管理微信:aimuvv
资源下载
下载价格10 金币
VIP免费
所有资源都在百度网盘,如有链接失效、解压错误等、请联系管理微信:aimuvv

原文链接:https://www.lgych.com/40766.html,转载请注明出处。

0

评论125

请先

  1. 谢谢分享
    huyiming249 2022-07-05 0
  2. 谢谢分享
    971145 2022-07-05 0
  3. 谢谢分享!
    user_zbz 2022-07-11 0
  4. 皮皮巴巴多谢分享!皮皮巴巴多谢分享!皮皮巴巴多谢分享!皮皮巴巴多谢分享!
    我是大男人 2022-07-11 0
  5. 多谢分享好资源!
    wo94ty 1周前 0
1 5 6 7
华语蓝光合集 252部11T资源终极收藏!支持硬盘拷贝:https://www.lgych.com/cnbd/
显示验证码
没有账号? 注册  忘记密码?