Foo Fighters Back And Forth 2011 1080p BluRay x264《BDrip MKV 6.55G》

[滤镜使用列表]
(1) Built-in MKV Source
(2) Built-in Video Codec/Transform
(3) Enhanced Video Renderer(Custom Present)
(4) Built-in Audio Codec/Transform
(5) DirectSound Audio Renderer

[视频信息]
视频编码: AVC1 - 内置 FFmpeg 解码器(h264, Thread Frame)
输入格式: AVC1(24 bits)
输入尺寸: 1920 × 1080(1.78:1)
输出格式: NV12(12 bits)
输出尺寸: 1920 × 1080(1.78:1)
帧率: 23.976
BitRate: 未知

[音频信息]
音频编码: Dolby AC3(0x2000) - 内置 FFmpeg 解码器(ac3)
采样率: 48000 -> 48000 Hz
位率: 0 -> 16 位
声道数: 6 -> 2 声道
Bitrate: 640 kbps

General
Unique ID : 220324475542429675687711354544878357253 (0xA5C0F3537FFB8B24B455013F7F118B05)
Complete name : J:\FOO-2011-6.55\Foo.Fighters.Back.And.Forth.2011.1080p.BluRay.x264-TREBLE\fighters1080p.mkv
Format : Matroska
Format version : Version 2
File size : 6.56 GiB
Duration : 1 h 40 min
Overall bit rate : 9 307 kb/s
Encoded date : UTC 2011-06-15 16:48:57
Writing application : mkvmerge v4.4.0 ('Die Wiederkehr') gemaakt op Oct 31 2010 21:52:48
Writing library : libebml v1.0.0 + libmatroska v1.0.0

Video
ID : 2
Format : AVC
Format/Info : Advanced Video Codec
Format profile : High@L4.1
Format settings : CABAC / 5 Ref Frames
Format settings, CABAC : Yes
Format settings, Reference fra : 5 frames
Muxing mode : Header stripping
Codec ID : V_MPEG4/ISO/AVC
Duration : 1 h 40 min
Bit rate : 8 667 kb/s
Width : 1 920 pixels
Height : 1 080 pixels
Display aspect ratio : 16:9
Frame rate mode : Constant
Frame rate : 23.976 FPS
Color space : YUV
Chroma subsampling : 4:2:0
Bit depth : 8 bits
Scan type : Progressive
Bits/(Pixel*Frame) : 0.174
Stream size : 5.98 GiB (91%)
Writing library : x264 core 115 r1995 c1e60b9
Encoding settings : cabac=1 / ref=5 / deblock=1:0:0 / analyse=0x3:0x133 / me=umh / subme=7 / psy=1 / psy_rd=1.00:0.00 / mixed_ref=1 / me_range=16 / chroma_me=1 / trellis=1 / 8x8dct=1 / cqm=0 / deadzone=21,11 / fast_pskip=1 / chroma_qp_offset=-2 / threads=6 / sliced_threads=0 / nr=0 / decimate=1 / interlaced=0 / bluray_compat=0 / constrained_intra=0 / bframes=3 / b_pyramid=2 / b_adapt=2 / b_bias=0 / direct=3 / weightb=1 / open_gop=0 / weightp=2 / keyint=250 / keyint_min=23 / scenecut=40 / intra_refresh=0 / rc=2pass / mbtree=0 / bitrate=8667 / ratetol=1.0 / qcomp=0.60 / qpmin=0 / qpmax=69 / qpstep=4 / cplxblur=20.0 / qblur=0.5 / ip_ratio=1.40 / pb_ratio=1.30 / aq=1:1.00
Language : English
Default : Yes
Forced : No

Audio
ID : 1
Format : AC-3
Format/Info : Audio Coding 3
Commercial name : Dolby Digital
Muxing mode : Header stripping
Codec ID : A_AC3
Duration : 1 h 40 min
Bit rate mode : Constant
Bit rate : 640 kb/s
Channel(s) : 6 channels
Channel layout : L R C LFE Ls Rs
Sampling rate : 48.0 kHz
Frame rate : 31.250 FPS (1536 SPF)
Compression mode : Lossy
Stream size : 462 MiB (7%)
Service kind : Complete Main
Default : Yes
Forced : No

Text #1
ID : 3
Format : UTF-8
Codec ID : S_TEXT/UTF8
Codec ID/Info : UTF-8 Plain Text
Title : English
Language : English
Default : Yes
Forced : No

Text #2
ID : 4
Format : UTF-8
Codec ID : S_TEXT/UTF8
Codec ID/Info : UTF-8 Plain Text
Title : Dutch
Language : Dutch
Default : No
Forced : No

 

 

资源下载此资源下载价格为3金币,VIP免费,请先
所有资源都在百度网盘,如有链接失效、解压错误等、请联系管理微信:aimuvv
资源下载
下载价格3 金币
VIP免费
所有资源都在百度网盘,如有链接失效、解压错误等、请联系管理微信:aimuvv

原文链接:https://www.lgych.com/40760.html,转载请注明出处。

0

评论118

请先

  1. 感谢分享!辛苦了辛苦了!
    simoneluisi1 2022-07-02 0
  2. 感谢分享!辛苦了辛苦了!
    bcq1 2022-07-02 0
  3. 感谢分享!辛苦了辛苦了!
    bcx1 2022-07-02 0
  4. 感谢分享!辛苦了辛苦了!
    bbh1 2022-07-02 0
  5. 感谢分享!辛苦了辛苦了!
    bbw1 2022-07-02 0
  6. 感谢分享!辛苦了辛苦了!
    xrl1 2022-07-02 0
  7. 感谢分享!辛苦了辛苦了!
    simone 2022-07-02 0
  8. 感谢楼主无私分享好资源!
    xrl1 2022-07-04 0
  9. 感谢楼主无私分享好资源!
    simone 2022-07-04 0
  10. 感谢楼主无私分享好资源!
    luisi 2022-07-04 0
  11. 谢谢分享
    hymhym 2022-07-05 0
  12. 谢谢分享jh
    hym9711 2022-07-05 0
  13. 谢谢分享
    huyiming249 2022-07-05 0
  14. 谢谢分享132
    971145 2022-07-05 0
  15. 很给力!
    rirzadol 2022-07-11 0
  16. 谢谢分享!
    user_zbz 2022-07-11 0
  17. 皮皮巴巴多谢分享!皮皮巴巴多谢分享!皮皮巴巴多谢分享!皮皮巴巴多谢分享!
    我是大男人 2022-07-11 0
  18. 多谢分享好资源!
    wo94ty 1周前 0
1 4 5 6
华语蓝光合集 252部11T资源终极收藏!支持硬盘拷贝:https://www.lgych.com/cnbd/
显示验证码
没有账号? 注册  忘记密码?