Luna Sea 3D In Los Angeles 2011 3D H OU 1080p JPN DTS AC3《BDrip MKV 11.6G》

视频信息]
视频编码: AVC1 - Native D3D9 DXVA Decoder(VLD) - NVIDIA Quadro M1000M
输入格式: AVC1(24 bits)
输入尺寸: 1920 × 1080(1.78:1)
输出格式: dxva
输出尺寸: 1920 × 1080(1.78:1)
帧率: 23.976
BitRate: 未知

[音频信息]
音频编码: Dolby AC3(0x2000) - 内置 FFmpeg 解码器(ac3)
采样率: 48000 -> 48000 Hz
位率: 0 -> 16 位
声道数: 6 -> 2 声道
Bitrate: 640 kbps

General
Unique ID : 189845984035526766870958375679338457298 (0x8ED301AD19F75809AB5AB601CEEFA8D2)
Complete name : Z:\Luna.Sea.3D.In.Los.Angeles.2011.3D.H-OU.1080p.JPN.DTS.AC3.z-man.The3DTeam.mkv\Luna.Sea.3D.In.Los.Angeles.2011.3D.H-OU.1080p.JPN.DTS.AC3.z-man.The3DTeam.mkv
Format : Matroska
Format version : Version 2
File size : 11.7 GiB
Duration : 1 h 43 min
Overall bit rate : 16.1 Mb/s
Encoded date : UTC 2012-03-08 06:47:35
Writing application : mkvmerge v3.4.0 ('Rapunzel') сборка от May 15 2010 09:38:20
Writing library : libebml v0.8.0 + libmatroska v0.9.0

Video
ID : 1
Format : AVC
Format/Info : Advanced Video Codec
Format profile : High@L4.1
MultiView_Count : 2
MultiView_Layout : Top-Bottom (left eye first)
Format settings : CABAC / 4 Ref Frames
Format settings, CABAC : Yes
Format settings, Reference fra : 4 frames
Codec ID : V_MPEG4/ISO/AVC
Duration : 1 h 43 min
Bit rate : 14.0 Mb/s
Width : 1 920 pixels
Height : 1 080 pixels
Display aspect ratio : 16:9
Frame rate mode : Constant
Frame rate : 23.976 (24000/1001) FPS
Color space : YUV
Chroma subsampling : 4:2:0
Bit depth : 8 bits
Scan type : Progressive
Bits/(Pixel*Frame) : 0.282
Stream size : 9.87 GiB (85%)
Title : Luna.Sea.3D.In.Los.Angeles.2011.3D.H-OU.1080p.JPN.DTS.z-man.The3DTeam
Writing library : x264 core 120 r2164 da19765
Encoding settings : cabac=1 / ref=4 / deblock=1:-1:-1 / analyse=0x3:0x113 / me=umh / subme=9 / psy=1 / psy_rd=1.00:0.15 / mixed_ref=1 / me_range=16 / chroma_me=1 / trellis=1 / 8x8dct=1 / cqm=0 / deadzone=21,11 / fast_pskip=1 / chroma_qp_offset=-3 / threads=18 / sliced_threads=0 / nr=0 / decimate=1 / interlaced=0 / bluray_compat=0 / constrained_intra=0 / bframes=3 / b_pyramid=2 / b_adapt=1 / b_bias=0 / direct=1 / weightb=1 / open_gop=0 / weightp=2 / keyint=250 / keyint_min=23 / scenecut=40 / intra_refresh=0 / rc_lookahead=40 / rc=2pass / mbtree=1 / bitrate=14000 / ratetol=1.0 / qcomp=0.60 / qpmin=0 / qpmax=69 / qpstep=4 / cplxblur=20.0 / qblur=0.5 / ip_ratio=1.40 / aq=1:1.00
Default : No
Forced : No

Audio #1
ID : 2
Format : DTS
Format/Info : Digital Theater Systems
Codec ID : A_DTS
Duration : 1 h 43 min
Bit rate mode : Constant
Bit rate : 1 509 kb/s
Channel(s) : 6 channels
Channel layout : C L R Ls Rs LFE
Sampling rate : 48.0 kHz
Frame rate : 93.750 FPS (512 SPF)
Bit depth : 24 bits
Compression mode : Lossy
Delay relative to video : 11 ms
Stream size : 1.09 GiB (9%)
Title : DTS
Language : Japanese
Default : No
Forced : No

Audio #2
ID : 3
Format : AC-3
Format/Info : Audio Coding 3
Commercial name : Dolby Digital
Codec ID : A_AC3
Duration : 1 h 43 min
Bit rate mode : Constant
Bit rate : 640 kb/s
Channel(s) : 6 channels
Channel layout : L R C LFE Ls Rs
Sampling rate : 48.0 kHz
Frame rate : 31.250 FPS (1536 SPF)
Compression mode : Lossy
Delay relative to video : 11 ms
Stream size : 473 MiB (4%)
Title : AC3
Language : Japanese
Service kind : Complete Main
Default : Yes
Forced : No

 

资源下载此资源下载价格为10金币,VIP免费,请先
所有资源都在百度网盘,如有链接失效、解压错误等、请联系管理微信:aimuvv
资源下载
下载价格10 金币
VIP免费
所有资源都在百度网盘,如有链接失效、解压错误等、请联系管理微信:aimuvv

原文链接:https://www.lgych.com/42208.html,转载请注明出处。

0

评论147

请先

  1. 谢楼主的精彩分享!
    bcx1 2022-06-29 0
  2. 谢楼主的精彩分享!
    bbh1 2022-06-29 0
  3. 谢楼主的精彩分享!
    bbw1 2022-06-29 0
  4. 谢楼主的精彩分享!
    xrl1 2022-06-29 0
  5. 谢楼主的精彩分享!
    simone 2022-06-29 0
  6. 谢楼主的精彩分享!
    luisi 2022-06-29 0
  7. 谢楼主的精彩分享!
    531707712 2022-06-29 0
  8. 谢楼主的精彩分享!
    simoneluisi 2022-06-29 0
  9. 谢谢分享dd
    hym9711 2022-07-03 0
  10. 谢谢分享ss
    hymhym 2022-07-03 0
  11. 谢谢分享wef
    huyiming249 2022-07-03 0
  12. 谢谢分享ee
    971145 2022-07-03 0
  13. 皮皮巴巴多谢分享!皮皮巴巴多谢分享!皮皮巴巴多谢分享!皮皮巴巴多谢分享!
    小小姐姐 2022-07-11 0
  14. 谢谢分享!
    user_zbz 4周前 0
  15. 多谢分享好资源!
    wo94ty 2周前 0
1 5 6 7
华语蓝光合集 252部11T资源终极收藏!支持硬盘拷贝:https://www.lgych.com/cnbd/
显示验证码
没有账号? 注册  忘记密码?