Widespread Panic's Tunes for Tots 2011 Benefit Concert《HDTV TS 7.91G》

[视频信息]
视频编码: MPG2 - Native D3D9 DXVA Decoder(VLD) - Intel(R) UHD Graphics 770
输入格式: MPG2(12 bits)
输入尺寸: 1920 × 1080(1.78:1)
输出格式: dxva
输出尺寸: 1920 × 1080(1.78:1)
帧率: 29.97
BitRate: 65000 kbps

[音频信息]
音频编码: AC3(0x2000) - 内置 FFmpeg 解码器(ac3)
采样率: 48000 -> 48000 Hz
位率: 0 -> 16 位
声道数: 6 -> 2 声道
Bitrate: 384 kbps

General
ID : 1 (0x1)
Complete name : Y:\Widespread Panic's Tunes for Tots 2011 Benefit Concert.ts\Widespread Panic's Tunes for Tots 2011 Benefit Concert.ts
Format : MPEG-TS
File size : 7.91 GiB
Duration : 1 h 3 min
Overall bit rate mode : Variable
Overall bit rate : 17.9 Mb/s

Video
ID : 6081 (0x17C1)
Menu ID : 1 (0x1)
Format : MPEG Video
Format version : Version 2
Format profile : Main@High
Format settings : CustomMatrix / BVOP
Format settings, BVOP : Yes
Format settings, Matrix : Custom
Format settings, GOP : M=3, N=15
Format settings, picture struc : Frame
Codec ID : 2
Duration : 1 h 3 min
Bit rate mode : Variable
Bit rate : 16.6 Mb/s
Maximum bit rate : 65.0 Mb/s
Width : 1 920 pixels
Height : 1 080 pixels
Display aspect ratio : 16:9
Frame rate : 29.970 (30000/1001) FPS
Color space : YUV
Chroma subsampling : 4:2:0
Bit depth : 8 bits
Scan type : Interlaced
Scan order : Top Field First
Compression mode : Lossy
Bits/(Pixel*Frame) : 0.267
Time code of first frame : 00:00:00;00
Time code source : Group of pictures header
GOP, Open/Closed : Open
GOP, Open/Closed of first fram : Closed
Stream size : 7.35 GiB (93%)

Audio
ID : 6083 (0x17C3)
Menu ID : 1 (0x1)
Format : AC-3
Format/Info : Audio Coding 3
Commercial name : Dolby Digital
Codec ID : 129
Duration : 1 h 3 min
Bit rate mode : Constant
Bit rate : 384 kb/s
Channel(s) : 6 channels
Channel layout : L R C LFE Ls Rs
Sampling rate : 48.0 kHz
Frame rate : 31.250 FPS (1536 SPF)
Compression mode : Lossy
Delay relative to video : 32 ms
Stream size : 174 MiB (2%)
Language : English
Service kind : Complete Main

 

资源下载
下载价格5 金币
所有资源都在百度网盘,如有链接失效、解压错误等、请联系管理微信:lgychcom
原文链接:https://www.lgych.com/52961.html,转载请注明出处。
0

评论156

请先
  1. 好资源感谢分享7b9
    2023-01-16 0
  2. 好资源感谢分享kmj
    2023-01-16 0
  3. 很棒的资源。谢谢6n4
    2023-01-16 0
  4. 很棒的资源。谢谢yz5
    2023-01-16 0
  5. 不错zrm
    2023-01-16 0
  6. 支持发展越来越好3wc
    2023-01-16 0
  7. 支持发展越来越好l23
    2023-01-16 0
  8. 很棒的资源。谢谢8tw
    2023-01-16 0
  9. 谢谢分享81y
    2023-01-17 0
  10. 支持发展越来越好63o
    2023-01-17 0
  11. 好资源感谢分享~
    JonesTOR 2023-07-24 0
  12. 谢谢分享9o6
    3周前 0
  13. 谢谢81v
    1周前 0
  14. 谢谢分享0fr
    1周前 0
  15. 好资源v5s
    1周前 0
  16. 感谢分享6qd
    1周前 0
1 6 7 8
香港群星 金典娱乐真经典 2010香港红馆演唱会《ISO 50.11G》
香港群星 金典娱乐真经典 2010香港红馆演唱会《ISO 50.11G》
10分钟前 有人购买 去瞅瞅看
本站资源均可通过签到或者评论免费获取,被一些朋友批量注册账号玩坏了;关闭自由注册,后面需要注册账号的朋友,请自助购买邀请码注册
显示验证码
没有账号?注册  忘记密码?