yanaginagi - Live Tour 2015 - polynomial《Remux MKV 17.2G》

[视频信息]
视频编码: HVC1
输入格式: HVC1
输入尺寸: 1920 × 1080(1.78:1)
输出格式: P010
输出尺寸: 1920 × -1080(1.78:1)
帧率: 23.976
BitRate: 未知

[音频信息]
音频编码: FLAC Framed(0xf1ac) - OpenCodec(FLAC Decoder)
采样率: 48000 -> 48000 Hz
位率: 24 -> 16 位
声道数: 2 -> 2 声道
Bitrate: 2304 kbps

General
Unique ID : 216519050245669085666367852668306170385 (0xA2E40D5F971C54E0B44963F03259A211)
Complete name : Z:\[VCB-Studio] yanaginagi Live 2015 Collection [Ma10p_1080p]\[VCB-Studio] yanaginagi Live Tour 2015 - polynomial [Ma10p_1080p][x265_flac].mkv
Format : Matroska
Format version : Version 4
File size : 10.9 GiB
Duration : 1 h 32 min
Overall bit rate mode : Variable
Overall bit rate : 16.9 Mb/s
Encoded date : UTC 2017-08-28 06:24:03
Writing application : mkvmerge v14.0.0 ('Flow') 64bit
Writing library : libebml v1.3.4 + libmatroska v1.4.5

Video
ID : 1
Format : HEVC
Format/Info : High Efficiency Video Coding
Format profile : Main 10@L4.1@High
Codec ID : V_MPEGH/ISO/HEVC
Duration : 1 h 32 min
Bit rate : 15.2 Mb/s
Width : 1 920 pixels
Height : 1 080 pixels
Display aspect ratio : 16:9
Frame rate mode : Constant
Frame rate : 23.976 (24000/1001) FPS
Color space : YUV
Chroma subsampling : 4:2:0
Bit depth : 10 bits
Bits/(Pixel*Frame) : 0.307
Stream size : 9.86 GiB (90%)
Writing library : x265 2.4+9-dccf02340c75:[Windows][MSVC 1910][64 bit] 10bit
Encoding settings : cpuid=1173503 / frame-threads=6 / numa-pools=32 / wpp / no-pmode / no-pme / no-psnr / no-ssim / log-level=2 / input-csp=1 / input-res=1920x1080 / interlace=0 / total-frames=0 / level-idc=0 / high-tier=1 / uhd-bd=0 / ref=4 / no-allow-non-conformance / no-repeat-headers / annexb / no-aud / no-hrd / info / hash=0 / no-temporal-layers / no-open-gop / min-keyint=1 / keyint=360 / bframes=6 / b-adapt=2 / b-pyramid / bframe-bias=0 / rc-lookahead=80 / lookahead-slices=4 / scenecut=40 / no-intra-refresh / ctu=32 / min-cu-size=8 / no-rect / no-amp / max-tu-size=32 / tu-inter-depth=2 / tu-intra-depth=2 / limit-tu=4 / rdoq-level=2 / dynamic-rd=0.00 / no-ssim-rd / signhide / no-tskip / nr-intra=0 / nr-inter=0 / no-constrained-intra / no-strong-intra-smoothing / max-merge=3 / limit-refs=2 / limit-modes / me=3 / subme=3 / merange=44 / temporal-mvp / weightp / weightb / no-analyze-src-pics / deblock=-1:-1 / no-sao / no-sao-non-deblock / rd=4 / no-early-skip / rskip / no-fast-intra / no-tskip-fast / no-cu-lossless / b-intra / rdpenalty=0 / psy-rd=1.50 / psy-rdoq=2.00 / no-rd-refine / analysis-mode=0 / no-lossless / cbqpoffs=-3 / crqpoffs=-3 / rc=crf / crf=16.5 / qcomp=0.65 / qpstep=4 / stats-write=0 / stats-read=0 / vbv-maxrate=36000 / vbv-bufsize=42000 / vbv-init=0.9 / crf-max=0.0 / crf-min=0.0 / ipratio=1.40 / pbratio=1.20 / aq-mode=3 / aq-strength=0.80 / cutree / zone-count=0 / no-strict-cbr / qg-size=32 / no-rc-grain / qpmax=69 / qpmin=0 / sar=0 / overscan=0 / videoformat=5 / range=0 / colorprim=2 / transfer=2 / colormatrix=1 / chromaloc=0 / display-window=0 / max-cll=0,0 / min-luma=0 / max-luma=1023 / log2-max-poc-lsb=8 / vui-timing-info / vui-hrd-info / slices=1 / opt-qp-pps / opt-ref-list-length-pps / no-multi-pass-opt-rps / scenecut-bias=0.05 / no-opt-cu-delta-qp / no-aq-motion / no-hdr / no-hdr-opt / no-dhdr10-opt / refine-level=5 / no-limit-sao
Default : Yes
Forced : No
Color range : Limited
Matrix coefficients : BT.709

Audio
ID : 2
Format : FLAC
Format/Info : Free Lossless Audio Codec
Codec ID : A_FLAC
Duration : 1 h 32 min
Bit rate mode : Variable
Bit rate : 1 642 kb/s
Channel(s) : 2 channels
Channel layout : L R
Sampling rate : 48.0 kHz
Frame rate : 11.719 FPS (4096 SPF)
Bit depth : 24 bits
Compression mode : Lossless
Stream size : 1.06 GiB (10%)
Writing library : libFLAC 1.2.1 (UTC 2007-09-17)
Language : Japanese
Default : Yes
Forced : No

Menu
00:00:00.000 : ja:polyomino-intro-
00:04:17.757 : ja:トコハナ
00:08:38.852 : ja:MC
00:10:49.482 : ja:Sweet Track
00:15:06.572 : ja:クロスロード
00:19:56.462 : ja:2つの月
00:24:09.782 : ja:テトラゴン
00:28:28.707 : ja:ファラウェイ・ハイウェイ
00:34:05.210 : ja:アクアテラリウム
00:39:10.014 : ja:三つ葉の結びめ
00:44:08.312 : ja:Rainy veil
00:48:15.893 : ja:Esse
00:53:44.555 : ja:landscape
00:57:51.034 : ja:逆転スペクトル
01:02:54.604 : ja:navis
01:07:44.894 : ja:MC
01:09:04.841 : ja:polyomino
01:13:41.183 : ja:You can count on me
01:20:57.186 : ja:point at infinity
01:25:58.920 : ja:ビードロ模様

 

资源下载此资源下载价格为10金币,VIP免费,请先
所有资源都在百度网盘,如有链接失效、解压错误等、请联系管理微信:aimuvv
资源下载
下载价格10 金币
VIP免费
所有资源都在百度网盘,如有链接失效、解压错误等、请联系管理微信:aimuvv

原文链接:https://www.lgych.com/42302.html,转载请注明出处。

0

评论185

请先

  1. 感谢分享
    Handsche 2022-07-10 0
  2. 多谢分享!
    q7886650 2022-07-10 0
  3. 多谢分享!
    Hkys 2022-07-10 0
  4. 多谢分享!
    a7886650 2022-07-10 0
  5. 皮皮巴巴多谢分享!皮皮巴巴多谢分享!皮皮巴巴多谢分享!皮皮巴巴多谢分享!
    小小姐姐 2022-07-11 0
  6. 谢谢分享—
    hym9711 4周前 0
  7. 谢谢分享…
    hymhym 4周前 0
  8. 谢谢分享
    huyiming249 4周前 0
  9. 谢谢分享..
    971145 4周前 0
  10. 感谢分享
    Hakku 4周前 0
  11. 谢谢
    zcd2kk 3周前 0
  12. 感谢分享bvvvvvvv
    powccd 1周前 0
  13. 谢谢分享
    andyzh 1天前 0
  14. 谢谢分享
    灰色系927 1天前 0
  15. 谢谢分享
    zcd057 1天前 0
1 7 8 9
华语蓝光合集 252部11T资源终极收藏!支持硬盘拷贝:https://www.lgych.com/cnbd/
显示验证码
没有账号? 注册  忘记密码?