yanaginagi - LIVE 2016 - Follow Your Tracks《Remux MKV 15.3G》

[视频信息]
视频编码: HVC1
输入格式: HVC1
输入尺寸: 1920 × 1080(1.78:1)
输出格式: P010
输出尺寸: 1920 × -1080(1.78:1)
帧率: 23.976
BitRate: 未知

[音频信息]
音频编码: FLAC Framed(0xf1ac) - OpenCodec(FLAC Decoder)
采样率: 48000 -> 48000 Hz
位率: 24 -> 16 位
声道数: 2 -> 2 声道
Bitrate: 2304 kbps

General
Unique ID : 253512154685151354981714478556370626867 (0xBEB8AA3D4575670FB7942961B28EE933)
Complete name : Z:\[VCB-Studio] yanaginagi LIVE 2016 - Follow Your Tracks [Ma10p_1080p]\[VCB-Studio] yanaginagi LIVE 2016 - Follow Your Tracks [Ma10p_1080p][x265_flac].mkv
Format : Matroska
Format version : Version 4
File size : 12.4 GiB
Duration : 2 h 9 min
Overall bit rate mode : Variable
Overall bit rate : 13.7 Mb/s
Encoded date : UTC 2017-06-04 11:26:10
Writing application : mkvmerge v9.7.1 ('Pandemonium') 64bit
Writing library : libebml v1.3.4 + libmatroska v1.4.5

Video
ID : 1
Format : HEVC
Format/Info : High Efficiency Video Coding
Format profile : Main 10@L4.1@High
Codec ID : V_MPEGH/ISO/HEVC
Duration : 2 h 9 min
Bit rate : 12.0 Mb/s
Width : 1 920 pixels
Height : 1 080 pixels
Display aspect ratio : 16:9
Frame rate mode : Constant
Frame rate : 23.976 (24000/1001) FPS
Color space : YUV
Chroma subsampling : 4:2:0
Bit depth : 10 bits
Bits/(Pixel*Frame) : 0.241
Stream size : 10.8 GiB (87%)
Writing library : x265 2.3+1-7e225aefd389:[Windows][MSVC 1910][64 bit] 10bit
Encoding settings : cpuid=1173503 / frame-threads=6 / numa-pools=32 / wpp / no-pmode / no-pme / no-psnr / no-ssim / log-level=2 / input-csp=1 / input-res=1920x1080 / interlace=0 / total-frames=0 / level-idc=0 / high-tier=1 / uhd-bd=0 / ref=4 / no-allow-non-conformance / no-repeat-headers / annexb / no-aud / no-hrd / info / hash=0 / no-temporal-layers / no-open-gop / min-keyint=1 / keyint=360 / bframes=6 / b-adapt=2 / b-pyramid / bframe-bias=0 / rc-lookahead=80 / lookahead-slices=4 / scenecut=40 / no-intra-refresh / ctu=32 / min-cu-size=8 / no-rect / no-amp / max-tu-size=32 / tu-inter-depth=2 / tu-intra-depth=2 / limit-tu=4 / rdoq-level=2 / dynamic-rd=0.00 / signhide / no-tskip / nr-intra=0 / nr-inter=0 / no-constrained-intra / no-strong-intra-smoothing / max-merge=3 / limit-refs=2 / limit-modes / me=3 / subme=3 / merange=44 / temporal-mvp / weightp / weightb / no-analyze-src-pics / deblock=-1:-1 / no-sao / no-sao-non-deblock / rd=4 / no-early-skip / rskip / no-fast-intra / no-tskip-fast / no-cu-lossless / b-intra / rdpenalty=0 / psy-rd=1.50 / psy-rdoq=2.00 / no-rd-refine / analysis-mode=0 / no-lossless / cbqpoffs=-3 / crqpoffs=-3 / rc=crf / crf=16.5 / qcomp=0.65 / qpstep=4 / stats-write=0 / stats-read=0 / vbv-maxrate=38000 / vbv-bufsize=45000 / vbv-init=0.9 / crf-max=0.0 / crf-min=0.0 / ipratio=1.40 / pbratio=1.20 / aq-mode=3 / aq-strength=0.80 / cutree / zone-count=0 / no-strict-cbr / qg-size=32 / no-rc-grain / qpmax=69 / qpmin=0 / sar=0 / overscan=0 / videoformat=5 / range=0 / colorprim=2 / transfer=2 / colormatrix=1 / chromaloc=0 / display-window=0 / max-cll=0,0 / min-luma=0 / max-luma=1023 / log2-max-poc-lsb=8 / vui-timing-info / vui-hrd-info / slices=1 / opt-qp-pps / opt-ref-list-length-pps / no-multi-pass-opt-rps / scenecut-bias=0.05 / no-opt-cu-delta-qp / no-aq-motion / no-hdr
Default : Yes
Forced : No
Color range : Limited
Matrix coefficients : BT.709

Audio
ID : 2
Format : FLAC
Format/Info : Free Lossless Audio Codec
Codec ID : A_FLAC
Duration : 2 h 9 min
Bit rate mode : Variable
Bit rate : 1 719 kb/s
Channel(s) : 2 channels
Channel layout : L R
Sampling rate : 48.0 kHz
Frame rate : 11.719 FPS (4096 SPF)
Bit depth : 24 bits
Compression mode : Lossless
Stream size : 1.55 GiB (13%)
Writing library : libFLAC 1.2.1 (UTC 2007-09-17)
Language : Japanese
Default : Yes
Forced : No

Menu
00:00:00.000 : ja:Follow My Tracks
00:03:05.185 : ja:春擬き
00:07:40.085 : ja:MC
00:08:53.450 : ja:ワンルームトラベル
00:12:37.590 : ja:キャメルバックの街
00:17:52.071 : ja:パラレルエレベーター
00:21:33.292 : ja:モノクローム・サイレントシティ
00:25:15.848 : ja:rooter's song
00:32:34.953 : ja:三つ葉の結びめ(re-arranged)
00:37:37.755 : ja:Sweet Track(re-arranged)
00:42:37.054 : ja:zoon politikon
00:47:28.596 : ja:in flight
00:53:22.616 : ja:skyscape
00:58:09.486 : ja:many universes
01:02:21.738 : ja:カザキリ
01:06:13.887 : ja:オラリオン
01:11:05.261 : ja:夜天幕
01:15:13.092 : ja:未来ペンシル
01:20:33.495 : ja:MC
01:23:40.933 : ja:ターミナル
01:44:11.245 : ja:MC: 告知、Happy Birthday
01:30:11.823 : ja:どこにも行かない
01:36:38.793 : ja:You can count on me
01:47:33.447 : ja:ユキトキ
01:52:14.728 : ja:MC
01:55:04.898 : ja:深遠
02:01:26.279 : ja:ビードロ模様
02:09:13.162 : ja:End

 

资源下载此资源下载价格为10金币,VIP免费,请先
所有资源都在百度网盘,如有链接失效、解压错误等、请联系管理微信:aimuvv
资源下载
下载价格10 金币
VIP免费
所有资源都在百度网盘,如有链接失效、解压错误等、请联系管理微信:aimuvv

原文链接:https://www.lgych.com/42308.html,转载请注明出处。

0

评论168

请先

  1. 感谢分享
    Hakku 4周前 0
  2. 多谢分享资源
    攔路雨偏似雪花 4周前 0
  3. 谢谢分享
    diyuzhihuo 10小时前 0
1 7 8 9
华语蓝光合集 252部11T资源终极收藏!支持硬盘拷贝:https://www.lgych.com/cnbd/
显示验证码
没有账号? 注册  忘记密码?