Linkin Park - Concert - 2008 - Live at Milton Keynes《HDTV MKV 18.8G》

[视频信息]
视频编码: AVC1 - Native D3D9 DXVA Decoder(VLD) - NVIDIA Quadro M1000M
输入格式: AVC1(24 bits)
输入尺寸: 1920 × 1080(1.78:1)
输出格式: dxva
输出尺寸: 1920 × 1080(1.78:1)
帧率: 23.976
BitRate: 未知

[音频信息]
音频编码: ExtPCM(0xfffe)
采样率: 48000 -> 48000 Hz
位率: 24 -> 24 位
声道数: 2 -> 2 声道
Bitrate: 2304 kbps

General
Unique ID : 223094158779614972219536734243594002539 (0xA7D65F40B5E4546AA3EE82628041606B)
Complete name : Z:\Linkin Park - Concert - 2008 - Live at Milton Keynes.mkv\Linkin Park - Concert - 2008 - Live at Milton Keynes.mkv
Format : Matroska
Format version : Version 2
File size : 18.9 GiB
Duration : 1 h 40 min
Overall bit rate mode : Variable
Overall bit rate : 26.8 Mb/s
Encoded date : UTC 2010-01-03 14:43:21
Writing application : mkvmerge v3.0.0 ('Hang up your Hang-Ups') built on Dec 12 2009 15:20:35
Writing library : libebml v0.7.9 + libmatroska v0.8.1

Video
ID : 1
Format : AVC
Format/Info : Advanced Video Codec
Format profile : High@L4.1
Format settings : CABAC / 4 Ref Frames
Format settings, CABAC : Yes
Format settings, Reference fra : 4 frames
Codec ID : V_MPEG4/ISO/AVC
Duration : 1 h 40 min
Bit rate mode : Variable
Bit rate : 22.4 Mb/s
Maximum bit rate : 38.0 Mb/s
Width : 1 920 pixels
Height : 1 080 pixels
Display aspect ratio : 16:9
Frame rate mode : Constant
Frame rate : 23.976 (24000/1001) FPS
Standard : NTSC
Color space : YUV
Chroma subsampling : 4:2:0
Bit depth : 8 bits
Scan type : Progressive
Bits/(Pixel*Frame) : 0.451
Stream size : 15.8 GiB (84%)
Default : Yes
Forced : No
Color range : Limited
Color primaries : BT.709
Transfer characteristics : BT.709
Matrix coefficients : BT.709

Audio #1
ID : 2
Format : PCM
Format settings : Little / Signed
Codec ID : A_PCM/INT/LIT
Duration : 1 h 40 min
Bit rate mode : Constant
Bit rate : 2 304 kb/s
Channel(s) : 2 channels
Sampling rate : 48.0 kHz
Bit depth : 24 bits
Stream size : 1.62 GiB (9%)
Title : PCM 2.0ch
Language : English
Default : Yes
Forced : No

Audio #2
ID : 3
Format : DTS
Format/Info : Digital Theater Systems
Codec ID : A_DTS
Duration : 1 h 40 min
Bit rate mode : Constant
Bit rate : 1 509 kb/s
Channel(s) : 6 channels
Channel layout : C L R Ls Rs LFE
Sampling rate : 48.0 kHz
Frame rate : 93.750 FPS (512 SPF)
Bit depth : 24 bits
Compression mode : Lossy
Stream size : 1.06 GiB (6%)
Title : DTS 5.1ch
Language : English
Default : No
Forced : No

 

资源下载此资源下载价格为10金币,VIP免费,请先
所有资源都在百度网盘,如有链接失效、解压错误等、请联系管理微信:aimuvv
资源下载
下载价格10 金币
VIP免费
所有资源都在百度网盘,如有链接失效、解压错误等、请联系管理微信:aimuvv

原文链接:https://www.lgych.com/42630.html,转载请注明出处。

0

评论137

请先

  1. 谢楼主的精彩分享!
    bbh1 2022-06-29 0
  2. 谢楼主的精彩分享!
    bbw1 2022-06-29 0
  3. 谢楼主的精彩分享!
    xrl1 2022-06-29 0
  4. 谢楼主的精彩分享!
    simone 2022-06-29 0
  5. 谢楼主的精彩分享!
    luisi 2022-06-29 0
  6. 谢楼主的精彩分享!
    531707712 2022-06-29 0
  7. 谢楼主的精彩分享!
    simoneluisi 2022-06-29 0
  8. 谢谢分享ds
    hym9711 2022-07-03 0
  9. 谢谢分享d612
    hymhym 2022-07-03 0
  10. 谢谢分享e3
    huyiming249 2022-07-03 0
  11. 谢谢分享ww
    971145 2022-07-03 0
  12. 皮皮巴巴多谢分享!皮皮巴巴多谢分享!皮皮巴巴多谢分享!皮皮巴巴多谢分享!
    老牛吃嫩草 2022-07-11 0
  13. 谢谢分享!
    user_zbz 4周前 0
  14. 多谢分享
    Mag999 3周前 0
  15. 多谢分享好资源!
    wo94ty 2周前 0
  16. 谢谢分享
    zcd057 1周前 0
  17. 好好
    Kwm488 6天前 0
1 5 6 7
华语蓝光合集 252部11T资源终极收藏!支持硬盘拷贝:https://www.lgych.com/cnbd/
显示验证码
没有账号? 注册  忘记密码?