Linkin Park - MTV EMA Madrid 2010 MPEG2 1080i《HDTV TS 20.8G》

[视频信息]
视频编码: MPG2 - Native D3D9 DXVA Decoder(VLD) - NVIDIA Quadro M1000M
输入格式: MPG2(12 bits)
输入尺寸: 1920 × 1080(1.78:1)
输出格式: dxva
输出尺寸: 1920 × 1080(1.78:1)
帧率: 25
BitRate: 38359.2 kbps

[音频信息]
音频编码: MPEG Audio(0x50) - 内置 FFmpeg 解码器(mp2float)
采样率: 48000 -> 48000 Hz
位率: 0 -> 16 位
声道数: 2 -> 2 声道
Bitrate: 384 kbps

General
ID : 1 (0x1)
Complete name : Z:\Linkin.Park.MTV.EMA.Madrid.2010.MPEG2.1080i.38Mbps.by.lexx.for.lp-bits.org.ts\Linkin.Park.MTV.EMA.Madrid.2010.MPEG2.1080i.38Mbps.by.lexx.for.lp-bits.org.ts
Format : MPEG-TS
File size : 20.9 GiB
Duration : 1 h 15 min
Overall bit rate mode : Variable
Overall bit rate : 39.7 Mb/s

Video
ID : 4113 (0x1011)
Menu ID : 1 (0x1)
Format : MPEG Video
Format version : Version 2
Format profile : Main@High
Format settings : CustomMatrix / BVOP
Format settings, BVOP : Yes
Format settings, Matrix : Custom
Format settings, GOP : M=3, N=12
Format settings, picture struc : Frame
Codec ID : 2
Duration : 1 h 15 min
Bit rate mode : Variable
Bit rate : 37.3 Mb/s
Maximum bit rate : 38.4 Mb/s
Width : 1 920 pixels
Height : 1 080 pixels
Display aspect ratio : 16:9
Frame rate : 25.000 FPS
Color space : YUV
Chroma subsampling : 4:2:0
Bit depth : 8 bits
Scan type : Interlaced
Scan order : Top Field First
Compression mode : Lossy
Bits/(Pixel*Frame) : 0.720
Time code of first frame : 00:00:00:00
Time code source : Group of pictures header
GOP, Open/Closed : Open
GOP, Open/Closed of first fram : Closed
Stream size : 19.6 GiB (94%)

Audio
ID : 4352 (0x1100)
Menu ID : 1 (0x1)
Format : MPEG Audio
Format version : Version 1
Format profile : Layer 2
Codec ID : 3
Duration : 1 h 15 min
Bit rate mode : Constant
Bit rate : 384 kb/s
Channel(s) : 2 channels
Sampling rate : 48.0 kHz
Frame rate : 41.667 FPS (1152 SPF)
Compression mode : Lossy
Stream size : 207 MiB (1%)

资源下载
下载价格10 金币
VIP免费
所有资源都在百度网盘,如有链接失效、解压错误等、请联系管理微信:lgychcom
原文链接:https://www.lgych.com/42639.html,转载请注明出处。
0

评论207

请先
  1. 非常棒的资源c10
    2023-01-16 0
  2. 不错wtp
    2023-01-16 0
  3. 谢谢楼主无私奉献n2b
    2023-01-16 0
  4. 谢谢分享g1f
    1周前 0
  5. 很棒的资源pfz
    1周前 0
  6. 非常棒 感谢
    蓝光风影纱 1周前 0
  7. 很棒的资源cf6
    7天前 0
1 9 10 11
周杰伦 魔天伦 世界巡回演唱会 Jay Chou Opus Jay World Tour 2013-2015《REMUX MKV 18.82G》
周杰伦 魔天伦 世界巡回演唱会 Jay Chou Opus Jay World Tour 2013-2015《REMUX MKV 18.82G》
10分钟前 有人购买 去瞅瞅看
本站资源均可通过签到或者评论免费获取,被一些朋友批量注册账号玩坏了;关闭自由注册,后面需要注册账号的朋友,请自助购买邀请码注册
显示验证码
没有账号?注册  忘记密码?