酷玩乐队 Coldplay Live From The Climate Pledge Arena 2021《WEB-DL MKV 6.36G》

[视频信息]
视频编码: AVC1 - Native D3D9 DXVA Decoder(VLD) - NVIDIA Quadro M1000M
输入格式: AVC1(24 bits)
输入尺寸: 1920 × 1080(1.78:1)
输出格式: dxva
输出尺寸: 1920 × 1080(1.78:1)
帧率: 25
BitRate: 未知

[音频信息]
音频编码: DD+(0x2000) - 内置 FFmpeg 解码器(eac3)
采样率: 48000 -> 48000 Hz
位率: 0 -> 16 位
声道数: 2 -> 2 声道
Bitrate: 224 kbps

General
Unique ID                      : 109750303779143744398043335208649527845 (0x529123BFCCC8FD9AC022C2F26B4A9225)
Complete name                  : K:\Coldplay.Live.At.The.Climate.Pledge.Arena.2021.1080p.WEB.h264-WEBLE.HEVC-WELP\Coldplay.Live.At.The.Climate.Pledge.Arena.2021.1080p.WEB.h264-WEBLE.mkv
Format                         : Matroska
Format version                 : Version 4
File size                      : 6.36 GiB
Duration                       : 1 h 36 min
Overall bit rate               : 9 396 kb/s
Encoded date                   : UTC 2021-11-12 08:09:05
Writing application            : mkvmerge v62.0.0 ('Apollo') 64-bit
Writing library                : libebml v1.4.2 + libmatroska v1.6.4

Video
ID                             : 1
Format                         : AVC
Format/Info                    : Advanced Video Codec
Format profile                 : High@L4
Format settings                : CABAC / 4 Ref Frames
Format settings, CABAC         : Yes
Format settings, Reference fra : 4 frames
Codec ID                       : V_MPEG4/ISO/AVC
Duration                       : 1 h 36 min
Bit rate mode                  : Constant
Bit rate                       : 9 170 kb/s
Nominal bit rate               : 10 000 kb/s
Width                          : 1 920 pixels
Height                         : 1 080 pixels
Display aspect ratio           : 16:9
Frame rate mode                : Constant
Frame rate                     : 25.000 FPS
Color space                    : YUV
Chroma subsampling             : 4:2:0
Bit depth                      : 8 bits
Scan type                      : Progressive
Bits/(Pixel*Frame)             : 0.177
Stream size                    : 6.20 GiB (98%)
Language                       : English
Default                        : Yes
Forced                         : No
Color range                    : Limited
Color primaries                : BT.709
Transfer characteristics       : BT.709
Matrix coefficients            : BT.709

Audio
ID                             : 2
Format                         : E-AC-3
Format/Info                    : Enhanced AC-3
Commercial name                : Dolby Digital Plus
Codec ID                       : A_EAC3
Duration                       : 1 h 36 min
Bit rate mode                  : Constant
Bit rate                       : 224 kb/s
Channel(s)                     : 2 channels
Channel layout                 : L R
Sampling rate                  : 48.0 kHz
Frame rate                     : 31.250 FPS (1536 SPF)
Compression mode               : Lossy
Stream size                    : 155 MiB (2%)
Language                       : English
Service kind                   : Complete Main
Default                        : Yes
Forced                         : No

Text #1
ID                             : 3
Format                         : UTF-8
Codec ID                       : S_TEXT/UTF8
Codec ID/Info                  : UTF-8 Plain Text
Duration                       : 1 h 33 min
Bit rate                       : 50 b/s
Count of elements              : 970
Stream size                    : 34.9 KiB (0%)
Title                          : Deutsch [UT]
Language                       : German
Default                        : No
Forced                         : No

Text #2
ID                             : 4
Format                         : UTF-8
Codec ID                       : S_TEXT/UTF8
Codec ID/Info                  : UTF-8 Plain Text
Duration                       : 1 h 35 min
Bit rate                       : 45 b/s
Count of elements              : 1021
Stream size                    : 31.6 KiB (0%)
Title                          : English
Language                       : English
Default                        : No
Forced                         : No

Text #3
ID                             : 5
Format                         : UTF-8
Codec ID                       : S_TEXT/UTF8
Codec ID/Info                  : UTF-8 Plain Text
Duration                       : 1 h 35 min
Bit rate                       : 45 b/s
Count of elements              : 1021
Stream size                    : 31.6 KiB (0%)
Title                          : Español (España)
Language                       : Spanish
Default                        : No
Forced                         : No

Text #4
ID                             : 6
Format                         : UTF-8
Codec ID                       : S_TEXT/UTF8
Codec ID/Info                  : UTF-8 Plain Text
Duration                       : 1 h 35 min
Bit rate                       : 45 b/s
Count of elements              : 1021
Stream size                    : 31.6 KiB (0%)
Title                          : Français (France)
Language                       : French
Default                        : No
Forced                         : No

Text #5
ID                             : 7
Format                         : UTF-8
Codec ID                       : S_TEXT/UTF8
Codec ID/Info                  : UTF-8 Plain Text
Duration                       : 1 h 35 min
Bit rate                       : 45 b/s
Count of elements              : 1021
Stream size                    : 31.6 KiB (0%)
Title                          : Português (Brasil) [SDH]
Language                       : Portuguese
Default                        : No
Forced                         : No

Text #6
ID                             : 8
Format                         : UTF-8
Codec ID                       : S_TEXT/UTF8
Codec ID/Info                  : UTF-8 Plain Text
Duration                       : 1 h 35 min
Bit rate                       : 45 b/s
Count of elements              : 1021
Stream size                    : 31.6 KiB (0%)
Title                          : Português (Portugal)
Language                       : Portuguese
Default                        : No
Forced                         : No

 

资源下载此资源下载价格为10金币,VIP免费,请先
所有资源都在百度网盘,如有链接失效、解压错误等、请联系管理微信:aimuvv
资源下载
下载价格10 金币
VIP免费
所有资源都在百度网盘,如有链接失效、解压错误等、请联系管理微信:aimuvv

原文链接:https://www.lgych.com/43234.html,转载请注明出处。

0

评论167

请先

  1. 谢谢分享!
    jiashuai 2022-06-10 0
  2. 多谢分享好资源
    jgl888 2022-06-11 0
  3. 谢谢分享
    awccn8888 2022-06-17 0
  4. 多谢分享
    CSLancelot 2022-06-26 0
  5. 谢谢分享sd
    hym9711 2022-06-30 0
  6. 谢谢分享
    hymhym 2022-06-30 0
  7. 谢谢分享ddd
    huyiming249 2022-06-30 0
  8. 谢谢分享dd
    971145 2022-06-30 0
  9. 谢谢分享12
    hymhym 2022-07-01 0
  10. 谢谢分享
    971145 2022-07-01 0
  11. 谢谢分享m
    hym9711 2022-07-02 0
  12. 谢谢分享—
    hymhym 2022-07-02 0
  13. 谢谢分享S
    huyiming249 2022-07-02 0
  14. 谢谢分享7
    971145 2022-07-02 0
  15. 皮皮巴巴多谢分享!皮皮巴巴多谢分享!皮皮巴巴多谢分享!皮皮巴巴多谢分享!
    老牛吃嫩草 2022-07-11 0
  16. 谢谢分享!
    user_zbz 4周前 0
  17. 感谢分享
    powccd 3周前 0
  18. 多谢分享好资源!
    wo94ty 2周前 0
  19. 感谢分享///
    powccd 2周前 0
1 6 7 8
华语蓝光合集 252部11T资源终极收藏!支持硬盘拷贝:https://www.lgych.com/cnbd/
显示验证码
没有账号? 注册  忘记密码?