Korn - Live At The Hollywood Palladium 2012《Remux MKV 15.5G》

[视频信息]
视频编码: AVC1 - Native D3D9 DXVA Decoder(VLD) - NVIDIA Quadro M1000M
输入格式: AVC1(24 bits)
输入尺寸: 1920 × 1080(1.78:1)
输出格式: dxva
输出尺寸: 1920 × 1080(1.78:1)
帧率: 29.97
BitRate: 未知

[音频信息]
音频编码: DTS(0x2001) - FFmpegMininum64.dll(dca)
采样率: 48000 -> 48000 Hz
位率: 24 -> 16 位
声道数: 6 -> 2 声道
Bitrate: 1509 kbps

General
Unique ID                      : 247967649964614334130400962192281025509 (0xBA8CD50D10D86FA7BCB4E9BCCACDBBE5)
Complete name                  : K:\Korn - Live At The Hollywood Palladium [2012, Dubstep, Nu Metal, BD Remux].mkv\Korn - Live At The Hollywood Palladium [2012, Dubstep, Nu Metal, BD Remux].mkv
Format                         : Matroska
Format version                 : Version 2
File size                      : 15.5 GiB
Duration                       : 1 h 14 min
Overall bit rate mode          : Variable
Overall bit rate               : 29.7 Mb/s
Movie name                     : Korn - Live At The Hollywood Palladium [2012, Dubstep, Nu Metal, BD Remux]
Encoded date                   : UTC 2012-09-28 14:39:08
Writing application            : mkvmerge v5.8.0 ('No Sleep / Pillow') built on Sep  2 2012 15:37:04
Writing library                : libebml v1.2.3 + libmatroska v1.3.0

Video
ID                             : 1
Format                         : AVC
Format/Info                    : Advanced Video Codec
Format profile                 : High@L4.1
Format settings                : CABAC / 2 Ref Frames
Format settings, CABAC         : Yes
Format settings, Reference fra : 2 frames
Codec ID                       : V_MPEG4/ISO/AVC
Duration                       : 1 h 14 min
Bit rate mode                  : Variable
Maximum bit rate               : 37.2 Mb/s
Width                          : 1 920 pixels
Height                         : 1 080 pixels
Display aspect ratio           : 16:9
Frame rate mode                : Constant
Frame rate                     : 29.970 (30000/1001) FPS
Color space                    : YUV
Chroma subsampling             : 4:2:0
Bit depth                      : 8 bits
Scan type                      : MBAFF
Scan type, store method        : Interleaved fields
Scan order                     : Top Field First
Title                          : Korn - Live At The Hollywood Palladium [2012, Dubstep, Nu Metal, BD Remux]
Language                       : English
Default                        : Yes
Forced                         : No

Audio #1
ID                             : 2
Format                         : DTS XLL
Format/Info                    : Digital Theater Systems
Commercial name                : DTS-HD Master Audio
Codec ID                       : A_DTS
Duration                       : 1 h 14 min
Bit rate mode                  : Variable
Channel(s)                     : 6 channels
Channel layout                 : C L R Ls Rs LFE
Sampling rate                  : 48.0 kHz
Frame rate                     : 93.750 FPS (512 SPF)
Bit depth                      : 24 bits
Compression mode               : Lossless
Title                          : DTS HD Master Audio [5.1 CH]
Language                       : English
Default                        : Yes
Forced                         : No

Audio #2
ID                             : 3
Format                         : DTS
Format/Info                    : Digital Theater Systems
Codec ID                       : A_DTS
Duration                       : 1 h 14 min
Bit rate mode                  : Constant
Bit rate                       : 1 509 kb/s
Channel(s)                     : 6 channels
Channel layout                 : C L R Ls Rs LFE
Sampling rate                  : 48.0 kHz
Frame rate                     : 93.750 FPS (512 SPF)
Bit depth                      : 24 bits
Compression mode               : Lossy
Stream size                    : 808 MiB (5%)
Title                          : DTS Core [5.1 CH]
Language                       : English
Default                        : No
Forced                         : No

Audio #3
ID                             : 4
Format                         : PCM
Format settings                : Little / Signed
Codec ID                       : A_PCM/INT/LIT
Duration                       : 1 h 14 min
Bit rate mode                  : Constant
Bit rate                       : 2 304 kb/s
Channel(s)                     : 2 channels
Sampling rate                  : 48.0 kHz
Bit depth                      : 24 bits
Stream size                    : 1.20 GiB (8%)
Title                          : PCM [2.0 CH]
Language                       : English
Default                        : No
Forced                         : No

Menu
00:00:45.000                   : Get Up!
00:04:45.785                   : Kill Mercy Within
00:08:25.505                   : Illuminati
00:12:24.210                   : Chaos Lives In Everything
00:16:23.450                   : My Wall
00:20:00.098                   : Way Too Far
00:23:48.894                   : Narcissistic Cannibal
00:27:35.945                   : Here To Stay
00:32:04.188                   : Freak On A Leash
00:36:51.442                   : Falling Away From Me
00:42:40.525                   : Predictable
00:47:03.420                   : Another Brick In The Wall
00:58:47.924                   : Shoots And Ladders
01:03:05.021                   : One
01:04:08.578                   : Got The Life
01:08:01.477                   : Blind

 

资源下载此资源下载价格为10金币,VIP免费,请先
所有资源都在百度网盘,如有链接失效、解压错误等、请联系管理微信:aimuvv
资源下载
下载价格10 金币
VIP免费
所有资源都在百度网盘,如有链接失效、解压错误等、请联系管理微信:aimuvv

原文链接:https://www.lgych.com/43207.html,转载请注明出处。

0

评论116

请先

  1. 太多好资源了!谢谢分享!
    xrl1 2022-06-28 0
  2. 太多好资源了!谢谢分享!
    simone 2022-06-28 0
  3. 太多好资源了!谢谢分享!
    luisi 2022-06-28 0
  4. 太多好资源了!谢谢分享!
    531707712 2022-06-28 0
  5. 太多好资源了!谢谢分享!
    simoneluisi 2022-06-28 0
  6. 太多好资源了!谢谢分享!
    simoneluisi1 2022-06-28 0
  7. 谢谢分享dd
    hymhym 2022-07-01 0
  8. 谢谢分享
    971145 2022-07-01 0
  9. 谢谢分享,好
    hym9711 2022-07-02 0
  10. 谢谢分享
    hymhym 2022-07-02 0
  11. 谢谢分享7
    huyiming249 2022-07-02 0
  12. 谢谢分享w
    971145 2022-07-02 0
  13. 皮皮巴巴多谢分享!皮皮巴巴多谢分享!皮皮巴巴多谢分享!皮皮巴巴多谢分享!
    老牛吃嫩草 2022-07-11 0
  14. 谢谢分享!
    user_zbz 4周前 0
  15. 多谢分享好资源!
    wo94ty 2周前 0
1 4 5 6
华语蓝光合集 252部11T资源终极收藏!支持硬盘拷贝:https://www.lgych.com/cnbd/
显示验证码
没有账号? 注册  忘记密码?