Aerosmith - Rock For The Rising Sun 2011《BDrip MKV 11.3G》

[视频信息]
视频编码: AVC1 - Native D3D9 DXVA Decoder(VLD) - NVIDIA Quadro M1000M
输入格式: AVC1(24 bits)
输入尺寸: 1920 × 1080(1.78:1)
输出格式: dxva
输出尺寸: 1920 × 1080(1.78:1)
帧率: 29.97
BitRate: 未知

[音频信息]
音频编码: DTS(0x2001) - FFmpegMininum64.dll(dca)
采样率: 48000 -> 48000 Hz
位率: 0 -> 16 位
声道数: 6 -> 2 声道
Bitrate: 1509 kbps

General
Unique ID : 180268925448198050165200492310768502418 (0x879E883B65848AC8B4EBB4A3E841C692)
Complete name : Z:\Aerosmith - Rock For The Rising Sun (2011) BDRip (1080p).mkv\Aerosmith - Rock For The Rising Sun (2011) BDRip (1080p).mkv
Format : Matroska
Format version : Version 1
File size : 13.3 GiB
Duration : 1 h 34 min
Overall bit rate : 20.1 Mb/s
Encoded date : UTC 2015-08-04 02:40:37
Writing application : mkvmerge v2.4.2 ('Oh My God') built on Jan 18 2009 17:30:28
Writing library : libebml v0.7.7 + libmatroska v0.8.1

Video
ID : 1
Format : AVC
Format/Info : Advanced Video Codec
Format profile : High@L4.1
Format settings : CABAC / 4 Ref Frames
Format settings, CABAC : Yes
Format settings, Reference fra : 4 frames
Codec ID : V_MPEG4/ISO/AVC
Duration : 1 h 34 min
Bit rate : 18.0 Mb/s
Width : 1 920 pixels
Height : 1 080 pixels
Display aspect ratio : 16:9
Frame rate mode : Constant
Frame rate : 29.970 (30000/1001) FPS
Color space : YUV
Chroma subsampling : 4:2:0
Bit depth : 8 bits
Scan type : Progressive
Bits/(Pixel*Frame) : 0.290
Stream size : 11.6 GiB (87%)
Writing library : x264 core 146 r2538 121396c
Encoding settings : cabac=1 / ref=4 / deblock=1:-3:-3 / analyse=0x3:0x113 / me=umh / subme=10 / psy=1 / psy_rd=1.00:0.15 / mixed_ref=1 / me_range=32 / chroma_me=1 / trellis=2 / 8x8dct=1 / cqm=0 / deadzone=21,11 / fast_pskip=0 / chroma_qp_offset=-3 / threads=12 / lookahead_threads=3 / sliced_threads=0 / nr=0 / decimate=1 / interlaced=0 / bluray_compat=0 / constrained_intra=0 / bframes=10 / b_pyramid=2 / b_adapt=2 / b_bias=0 / direct=3 / weightb=1 / open_gop=0 / weightp=2 / keyint=300 / keyint_min=29 / scenecut=40 / intra_refresh=0 / rc_lookahead=40 / rc=2pass / mbtree=1 / bitrate=18000 / ratetol=1.0 / qcomp=0.60 / qpmin=0 / qpmax=69 / qpstep=4 / cplxblur=20.0 / qblur=0.5 / ip_ratio=1.40 / aq=1:1.00
Default : Yes
Forced : No
Statistics Tags Issue : mkvmerge v7.7.0 ('Six Voices') 32bit built on Feb 28 2015 23:23:00 2015-08-03 21:30:23 / mkvmerge v2.4.2 ('Oh My God') built on Jan 18 2009 17:30:28 2015-08-04 02:40:37
FromStats_BitRate : 17993930
FromStats_Duration : 01:34:31.999000000
FromStats_FrameCount : 169990
FromStats_StreamSize : 12757694748

Audio #1
ID : 2
Format : DTS
Format/Info : Digital Theater Systems
Codec ID : A_DTS
Duration : 1 h 34 min
Bit rate mode : Constant
Bit rate : 1 509 kb/s
Channel(s) : 6 channels
Channel layout : C L R Ls Rs LFE
Sampling rate : 48.0 kHz
Frame rate : 93.750 FPS (512 SPF)
Bit depth : 16 bits
Compression mode : Lossy
Stream size : 1 020 MiB (7%)
Default : Yes
Forced : No

Audio #2
ID : 3
Format : AC-3
Format/Info : Audio Coding 3
Commercial name : Dolby Digital
Codec ID : A_AC3
Duration : 1 h 34 min
Bit rate mode : Constant
Bit rate : 640 kb/s
Channel(s) : 2 channels
Channel layout : L R
Sampling rate : 48.0 kHz
Frame rate : 31.250 FPS (1536 SPF)
Compression mode : Lossy
Stream size : 433 MiB (3%)
Service kind : Complete Main
Default : No
Forced : No

Menu
00:00:00.000 : :Chapter 01
00:01:10.336 : :Chapter 02
00:05:57.490 : :Chapter 03
00:13:32.444 : :Chapter 04
00:19:10.315 : :Chapter 05
00:22:15.567 : :Chapter 06
00:28:42.620 : :Chapter 07
00:35:49.614 : :Chapter 08
00:40:00.097 : :Chapter 09
00:43:56.367 : :Chapter 10
00:48:58.802 : :Chapter 11
00:59:08.478 : :Chapter 12
01:01:40.897 : :Chapter 13
01:07:18.968 : :Chapter 14
01:13:27.269 : :Chapter 15
01:22:56.938 : :Chapter 16
01:26:32.020 : :Chapter 17
01:33:00.041 : :Chapter 18

 

资源下载此资源下载价格为10金币,VIP免费,请先
所有资源都在百度网盘,如有链接失效、解压错误等、请联系管理微信:aimuvv
资源下载
下载价格10 金币
VIP免费
所有资源都在百度网盘,如有链接失效、解压错误等、请联系管理微信:aimuvv

原文链接:https://www.lgych.com/43889.html,转载请注明出处。

0

评论105

请先

  1. 感谢分享,谢谢
    andy919 2022-07-02 0
  2. 感谢分享演唱会感谢分享演唱会感谢分享演唱会感谢分享演唱会感谢分享演唱会感谢分享演唱会
    皮皮巴巴 2022-07-11 0
  3. 谢谢分享!
    user_zbz 4周前 0
  4. 多谢分享好资源!
    wo94ty 2周前 0
1 4 5 6
华语蓝光合集 252部11T资源终极收藏!支持硬盘拷贝:https://www.lgych.com/cnbd/
显示验证码
没有账号? 注册  忘记密码?