Anathema - Universal 2013《BDrip MKV 17.9G》

[视频信息]
视频编码: AVC1 - 内置 FFmpeg 解码器(h264, Thread Frame)
输入格式: AVC1(24 bits)
输入尺寸: 1920 × 1080(1.78:1)
输出格式: NV12(12 bits)
输出尺寸: 1920 × 1080(1.78:1)
帧率: 23.976
BitRate: 未知

[音频信息]
音频编码: ExtPCM(0xfffe) - PCM
采样率: 48000 -> 48000 Hz
位率: 24 -> 16 位
声道数: 2 -> 2 声道
Bitrate: 2304 kbps

General
Unique ID : 196552269600088543657403601155925681406 (0x93DE97151E9914D9898970450EE724FE)
Complete name : Z:\Anathema - Universal (2013) BDRip 1080p\Anathema.Universal.2013.BDRip.1080p.mkv
Format : Matroska
Format version : Version 2
File size : 16.3 GiB
Duration : 2 h 20 min
Overall bit rate : 16.6 Mb/s
Encoded date : UTC 2013-10-06 04:48:00
Writing application : mkvmerge v3.4.0 ('Rapunzel') built on May 15 2010 09:38:20
Writing library : libebml v0.8.0 + libmatroska v0.9.0

Video
ID : 1
Format : AVC
Format/Info : Advanced Video Codec
Format profile : High@L4.1
Format settings : CABAC / 4 Ref Frames
Format settings, CABAC : Yes
Format settings, Reference fra : 4 frames
Codec ID : V_MPEG4/ISO/AVC
Duration : 2 h 20 min
Bit rate : 14.0 Mb/s
Width : 1 920 pixels
Height : 1 080 pixels
Display aspect ratio : 16:9
Frame rate mode : Constant
Frame rate : 24.000 FPS
Color space : YUV
Chroma subsampling : 4:2:0
Bit depth : 8 bits
Scan type : Progressive
Bits/(Pixel*Frame) : 0.281
Stream size : 13.7 GiB (84%)
Writing library : x264 core 138 r2358kMod 9e941d1
Encoding settings : cabac=1 / ref=4 / deblock=1:0:0 / analyse=0x3:0x113 / me=umh / subme=10 / psy=1 / fade_compensate=0.00 / psy_rd=1.00:0.00 / mixed_ref=1 / me_range=32 / chroma_me=1 / trellis=2 / 8x8dct=1 / cqm=0 / deadzone=21,11 / fast_pskip=1 / chroma_qp_offset=-2 / threads=6 / lookahead_threads=1 / sliced_threads=0 / nr=0 / decimate=1 / interlaced=0 / bluray_compat=0 / constrained_intra=0 / bframes=6 / b_pyramid=2 / b_adapt=2 / b_bias=0 / direct=1 / weightb=1 / open_gop=0 / weightp=2 / keyint=250 / keyint_min=23 / scenecut=40 / intra_refresh=0 / rc_lookahead=60 / rc=crf / mbtree=1 / crf=18.3000 / qcomp=0.60 / qpmin=0 / qpmax=69 / qpstep=4 / vbv_maxrate=50000 / vbv_bufsize=62500 / crf_max=0.0 / nal_hrd=none / ip_ratio=1.40 / aq=1:0.90
Language : English
Default : No
Forced : No
Color range : Limited
Color primaries : BT.709
Transfer characteristics : BT.709
Matrix coefficients : BT.709

Audio
ID : 2
Format : PCM
Format settings : Little / Signed
Codec ID : A_PCM/INT/LIT
Duration : 2 h 20 min
Bit rate mode : Constant
Bit rate : 2 304 kb/s
Channel(s) : 2 channels
Sampling rate : 48.0 kHz
Bit depth : 24 bits
Stream size : 2.26 GiB (14%)
Language : English
Default : Yes
Forced : No

Menu
00:00:00.000 : en:Untouchable, Part 1
00:07:00.002 : en:Untouchable, Part 2
00:13:06.994 : en:Thin Air
00:19:23.745 : en:Dreaming Light
00:25:34.491 : en:Lightning Song
00:31:18.835 : en:The Storm Before the Calm
00:40:46.527 : en:Everything
00:46:41.340 : en:A Simple Mistake
00:55:26.740 : en:The Beginning and the End
01:00:09.063 : en:Universal
01:08:06.832 : en:Closer
01:14:37.097 : en:A Natural Disaster
01:21:08.780 : en:Deep
01:26:34.689 : en:One Last Goodbye
01:32:53.192 : en:Flying
01:43:38.670 : en:Fragile Dreams
01:51:15.126 : en:Panic
01:55:31.215 : en:Emotional Winter / Wings of God
02:05:16.175 : en:Internal Landscapes
02:13:34.756 : en:Fragile Dreams

 

资源下载此资源下载价格为10金币,VIP免费,请先
所有资源都在百度网盘,如有链接失效、解压错误等、请联系管理微信:aimuvv
资源下载
下载价格10 金币
VIP免费
所有资源都在百度网盘,如有链接失效、解压错误等、请联系管理微信:aimuvv

原文链接:https://www.lgych.com/43922.html,转载请注明出处。

0

评论110

请先

  1. thank you so much
    cfgfrblyykgdaktzny 2022-06-25 0
  2. 谢谢分享sdfdsf
    hym9711 2022-06-30 0
  3. 谢谢分享ddd
    hymhym 2022-06-30 0
  4. 谢谢分享
    huyiming249 2022-06-30 0
  5. 谢谢分享d
    971145 2022-06-30 0
  6. 多谢分享
    CSLancelot 2022-07-01 0
  7. 感谢分享,谢谢
    andy919 2022-07-02 0
  8. 感谢分享演唱会感谢分享演唱会感谢分享演唱会感谢分享演唱会感谢分享演唱会感谢分享演唱会
    皮皮巴巴 2022-07-11 0
  9. 谢谢分享!
    user_zbz 4周前 0
  10. 多谢分享好资源!
    wo94ty 3周前 0
1 4 5 6
华语蓝光合集 252部11T资源终极收藏!支持硬盘拷贝:https://www.lgych.com/cnbd/
显示验证码
没有账号? 注册  忘记密码?