Andrea Berg - Das Leben ist ein Mosaik 2020 720P《HDTV MKV 11.7G》

[视频信息]
视频编码: AVC1 - 内置 FFmpeg 解码器(h264, Thread Frame)
输入格式: AVC1(24 bits)
输入尺寸: 1280 × 720(1.78:1)
输出格式: NV12(12 bits)
输出尺寸: 1280 × 720(1.78:1)
帧率: 50
BitRate: 未知

[音频信息]
音频编码: Dolby AC3(0x2000) - 内置 FFmpeg 解码器(ac3)
采样率: 48000 -> 48000 Hz
位率: 0 -> 16 位
声道数: 2 -> 2 声道
Bitrate: 448 kbps

General
Unique ID : 62786049927623582051972766575247553889 (0x2F3C2742E604A74CA46612EF76ACF561)
Complete name : Z:\Andrea Berg - Das Leben ist ein Mosaik 2020.mkv\Andrea Berg - Das Leben ist ein Mosaik 2020.mkv
Format : Matroska
Format version : Version 4
File size : 11.7 GiB
Duration : 2 h 0 min
Overall bit rate : 13.9 Mb/s
Encoded date : UTC 2020-05-03 07:06:55
Writing application : TMPGEnc MPEG Smart Renderer 5 Version 5.0.21.27
Writing library : TMPGEnc MPEG Smart Renderer 5 Version 5.0.21.27

Video
ID : 1
Format : AVC
Format/Info : Advanced Video Codec
Format profile : High@L4
Format settings : CABAC / 6 Ref Frames
Format settings, CABAC : Yes
Format settings, Reference fra : 6 frames
Codec ID : V_MPEG4/ISO/AVC
Duration : 2 h 0 min
Bit rate : 13.2 Mb/s
Width : 1 280 pixels
Height : 720 pixels
Display aspect ratio : 16:9
Frame rate mode : Constant
Frame rate : 50.000 FPS
Standard : Component
Color space : YUV
Chroma subsampling : 4:2:0
Bit depth : 8 bits
Scan type : Progressive
Bits/(Pixel*Frame) : 0.287
Stream size : 11.1 GiB (95%)
Default : Yes
Forced : No
Color range : Limited
Color primaries : BT.709
Transfer characteristics : BT.709
Matrix coefficients : BT.709

Audio
ID : 2
Format : AC-3
Format/Info : Audio Coding 3
Commercial name : Dolby Digital
Codec ID : A_AC3
Duration : 2 h 0 min
Bit rate mode : Constant
Bit rate : 448 kb/s
Channel(s) : 2 channels
Channel layout : L R
Sampling rate : 48.0 kHz
Frame rate : 31.250 FPS (1536 SPF)
Compression mode : Lossy
Stream size : 385 MiB (3%)
Service kind : Complete Main
Default : Yes
Forced : No

Menu
00:00:00.000 : 00:00:00.000
00:03:23.580 : 00:03:23.580
00:05:03.280 : 00:05:03.280
00:07:39.840 : 00:07:39.840
00:10:37.600 : 00:10:37.600
00:13:45.180 : 00:13:45.180
00:18:26.820 : 00:18:26.820
00:22:22.600 : 00:22:22.600
00:25:22.040 : 00:25:22.040
00:28:00.640 : 00:28:00.640
00:31:34.680 : 00:31:34.680
00:35:40.640 : 00:35:40.640
00:39:13.340 : 00:39:13.340
00:43:20.420 : 00:43:20.420
00:46:34.500 : 00:46:34.500
00:49:42.420 : 00:49:42.420
00:53:31.360 : 00:53:31.360
00:56:55.020 : 00:56:55.020
01:01:52.640 : 01:01:52.640
01:04:42.420 : 01:04:42.420
01:08:04.060 : 01:08:04.060
01:11:36.380 : 01:11:36.380
01:13:32.300 : 01:13:32.300
01:19:00.960 : 01:19:00.960
01:20:29.760 : 01:20:29.760
01:22:24.400 : 01:22:24.400
01:25:06.740 : 01:25:06.740
01:27:07.020 : 01:27:07.020
01:30:43.400 : 01:30:43.400
01:33:08.140 : 01:33:08.140
01:38:34.920 : 01:38:34.920
01:42:02.280 : 01:42:02.280
01:48:44.760 : 01:48:44.760
01:54:57.040 : 01:54:57.040

 

资源下载此资源下载价格为10金币,VIP免费,请先
所有资源都在百度网盘,如有链接失效、解压错误等、请联系管理微信:aimuvv
资源下载
下载价格10 金币
VIP免费
所有资源都在百度网盘,如有链接失效、解压错误等、请联系管理微信:aimuvv

原文链接:https://www.lgych.com/43972.html,转载请注明出处。

0

评论139

请先

  1. 謝謝分享
    conro 2022-06-14 0
  2. 谢谢分享
    awccn8888 2022-06-16 0
  3. 谢谢分享........
    powccd 2022-06-17 0
  4. 謝謝分享
    rhlinux 2022-06-27 0
  5. 多谢分享
    CSLancelot 2022-07-01 0
  6. 谢谢分享
    hymhym 2022-07-01 0
  7. 感谢分享好演唱会
    andy919 2022-07-02 0
  8. 这个太棒了 谢谢分享
    15506351610 2022-07-06 0
  9. 感谢分享演唱会感谢分享演唱会感谢分享演唱会感谢分享演唱会感谢分享演唱会感谢分享演唱会
    皮皮巴巴 2022-07-11 0
  10. 谢谢分享!
    user_zbz 4周前 0
  11. 谢谢楼主分享
    jgl888 4周前 0
  12. 谢谢分享
    languang432 4周前 0
  13. 谢谢分享
    zcd2kk 3周前 0
  14. 多谢分享好资源!
    wo94ty 3周前 0
  15. 谢谢分享
    jgl888 1周前 0
  16. 谢谢楼主分享UIUIUIUIUIUIUIUIUIUIUI
    powccd 4天前 0
  17. 非常好的资源
    jgl888 2天前 0
1 5 6 7
华语蓝光合集 252部11T资源终极收藏!支持硬盘拷贝:https://www.lgych.com/cnbd/
显示验证码
没有账号? 注册  忘记密码?