Andrea Berg - So Nah Wie Nie! 2016 720P《HDTV MKV 12.7G》

[视频信息]
视频编码: AVC1 - 内置 FFmpeg 解码器(h264, Thread Frame)
输入格式: AVC1(24 bits)
输入尺寸: 1280 × 720(1.78:1)
输出格式: NV12(12 bits)
输出尺寸: 1280 × 720(1.78:1)
帧率: 50
BitRate: 未知

[音频信息]
音频编码: Dolby AC3(0x2000) - 内置 FFmpeg 解码器(ac3)
采样率: 48000 -> 48000 Hz
位率: 0 -> 16 位
声道数: 2 -> 2 声道
Bitrate: 448 kbps

General
Unique ID : 202235873997372249123490215451848922951 (0x9825366A135F4C70AA5E0545E188D747)
Complete name : Z:\Andrea Berg - So Nah Wie Nie! 2016.mkv\Andrea Berg - So Nah Wie Nie! 2016.mkv
Format : Matroska
Format version : Version 4
File size : 12.8 GiB
Duration : 2 h 27 min
Overall bit rate : 12.4 Mb/s
Encoded date : UTC 2016-08-14 09:30:15
Writing application : mkvmerge v8.3.0 ('Over the Horizon') 32bit
Writing library : libebml v1.3.1 + libmatroska v1.4.2

Video
ID : 1
Format : AVC
Format/Info : Advanced Video Codec
Format profile : High@L4
Format settings : CABAC / 4 Ref Frames
Format settings, CABAC : Yes
Format settings, Reference fra : 4 frames
Format settings, GOP : M=6, N=32
Codec ID : V_MPEG4/ISO/AVC
Duration : 2 h 27 min
Bit rate : 11.9 Mb/s
Width : 1 280 pixels
Height : 720 pixels
Display aspect ratio : 16:9
Frame rate mode : Constant
Frame rate : 50.000 FPS
Standard : Component
Color space : YUV
Chroma subsampling : 4:2:0
Bit depth : 8 bits
Scan type : Progressive
Bits/(Pixel*Frame) : 0.259
Stream size : 12.3 GiB (96%)
Default : Yes
Forced : No
Color range : Limited
Color primaries : BT.709
Transfer characteristics : BT.709
Matrix coefficients : BT.709

Audio
ID : 2
Format : AC-3
Format/Info : Audio Coding 3
Commercial name : Dolby Digital
Codec ID : A_AC3
Duration : 2 h 27 min
Bit rate mode : Constant
Bit rate : 448 kb/s
Channel(s) : 2 channels
Channel layout : L R
Sampling rate : 48.0 kHz
Frame rate : 31.250 FPS (1536 SPF)
Compression mode : Lossy
Stream size : 474 MiB (4%)
Language : German
Service kind : Complete Main
Default : No
Forced : No

Menu
00:00:00.000 : 00:00:00.000
00:03:57.020 : 00:03:57.020
00:05:38.180 : 00:05:38.180
00:07:47.780 : 00:07:47.780
00:09:33.620 : 00:09:33.620
00:12:41.940 : 00:12:41.940
00:15:14.740 : 00:15:14.740
00:19:57.140 : 00:19:57.140
00:27:10.700 : 00:27:10.700
00:31:38.640 : 00:31:38.640
00:37:09.700 : 00:37:09.700
00:39:16.320 : 00:39:16.320
00:42:02.500 : 00:42:02.500
00:44:33.660 : 00:44:33.660
00:48:11.820 : 00:48:11.820
00:52:04.980 : 00:52:04.980
00:56:26.620 : 00:56:26.620
01:00:11.740 : 01:00:11.740
01:03:45.100 : 01:03:45.100
01:09:49.580 : 01:09:49.580
01:14:20.640 : 01:14:20.640
01:17:22.260 : 01:17:22.260
01:20:53.100 : 01:20:53.100
01:25:36.540 : 01:25:36.540
01:29:43.460 : 01:29:43.460
01:33:32.020 : 01:33:32.020
01:37:06.420 : 01:37:06.420
01:41:14.940 : 01:41:14.940
01:46:08.300 : 01:46:08.300
01:51:00.940 : 01:51:00.940
01:55:48.580 : 01:55:48.580
01:58:58.220 : 01:58:58.220
02:02:13.980 : 02:02:13.980
02:07:37.900 : 02:07:37.900
02:11:56.140 : 02:11:56.140
02:16:23.860 : 02:16:23.860
02:20:50.620 : 02:20:50.620
02:24:45.940 : 02:24:45.940

 

资源下载此资源下载价格为10金币,VIP免费,请先
所有资源都在百度网盘,如有链接失效、解压错误等、请联系管理微信:aimuvv
资源下载
下载价格10 金币
VIP免费
所有资源都在百度网盘,如有链接失效、解压错误等、请联系管理微信:aimuvv

原文链接:https://www.lgych.com/43966.html,转载请注明出处。

0

评论114

请先

  1. 谢谢分享
    人间词话123 2022-06-29 0
  2. 谢谢分享
    hym9711 2022-06-30 0
  3. 谢谢分享dd
    hymhym 2022-06-30 0
  4. 谢谢分享sa
    huyiming249 2022-06-30 0
  5. 谢谢分享
    971145 2022-06-30 0
  6. 谢谢分享
    hymhym 2022-07-01 0
  7. 精彩,感谢分享
    andy919 2022-07-02 0
  8. 感谢分享演唱会感谢分享演唱会感谢分享演唱会感谢分享演唱会感谢分享演唱会感谢分享演唱会
    皮皮巴巴 2022-07-11 0
  9. 谢谢分享!
    user_zbz 4周前 0
  10. 多谢分享好资源!
    wo94ty 2周前 0
1 4 5 6
华语蓝光合集 252部11T资源终极收藏!支持硬盘拷贝:https://www.lgych.com/cnbd/
显示验证码
没有账号? 注册  忘记密码?