Diana Krall Live in Rio 2009《Remux MKV 25.9G》

[视频信息]
视频编码: AVC1 - 内置 FFmpeg 解码器(h264, Thread Frame)
输入格式: AVC1(24 bits)
输入尺寸: 1920 × 1080(1.78:1)
输出格式: NV12(12 bits)
输出尺寸: 1920 × 1080(1.78:1)
帧率: 29.97
BitRate: 未知

[音频信息]
音频编码: PCM(0x1) - PCM
采样率: 48000 -> 48000 Hz
位率: 16 -> 16 位
声道数: 2 -> 2 声道
Bitrate: 1536 kbps

General
Unique ID : 174625647989734703061229086659702277927 (0x835FAD2BF7C22331A8F744395089C727)
Complete name : W:\Diana Krall Live in Rio 2009.mkv
Format : Matroska
Format version : Version 4
File size : 25.9 GiB
Duration : 1 h 50 min
Overall bit rate mode : Variable
Overall bit rate : 33.4 Mb/s
Encoded date : UTC 2013-11-02 12:54:51
Writing application : mkvmerge v6.4.1 ('Omega Point') built on Sep 16 2013 22:05:10
Writing library : libebml v1.3.0 + libmatroska v1.4.1

Video
ID : 1
Format : AVC
Format/Info : Advanced Video Codec
Format profile : High@L4.1
Format settings : CABAC / 4 Ref Frames
Format settings, CABAC : Yes
Format settings, Reference fra : 4 frames
Codec ID : V_MPEG4/ISO/AVC
Duration : 1 h 50 min
Bit rate mode : Variable
Maximum bit rate : 32.5 Mb/s
Width : 1 920 pixels
Height : 1 080 pixels
Display aspect ratio : 16:9
Frame rate mode : Constant
Frame rate : 29.970 (30000/1001) FPS
Standard : NTSC
Color space : YUV
Chroma subsampling : 4:2:0
Bit depth : 8 bits
Scan type : MBAFF
Scan type, store method : Interleaved fields
Scan order : Top Field First
Title : AVC, High@L4.1, NTSC, 16:9 (1920x1080i), 28986 kbps, 29.97 fps
Default : Yes
Forced : No
Color range : Limited
Color primaries : BT.709
Transfer characteristics : BT.709
Matrix coefficients : BT.709

Audio #1
ID : 2
Format : PCM
Format settings : Little / Signed
Codec ID : A_PCM/INT/LIT
Duration : 1 h 50 min
Bit rate mode : Constant
Bit rate : 1 536 kb/s
Channel(s) : 2 channels
Sampling rate : 48.0 kHz
Bit depth : 16 bits
Stream size : 1.19 GiB (5%)
Title : LPCM, 2 ch, 1536 kbps, 16-bit, 48 kHz
Language : English
Default : Yes
Forced : No

Audio #2
ID : 3
Format : DTS XLL
Format/Info : Digital Theater Systems
Commercial name : DTS-HD Master Audio
Codec ID : A_DTS
Duration : 1 h 50 min
Bit rate mode : Variable
Channel(s) : 6 channels
Channel layout : C L R Ls Rs LFE
Sampling rate : 48.0 kHz
Frame rate : 93.750 FPS (512 SPF)
Bit depth : 16 bits
Compression mode : Lossless
Title : DTS MA / Core, 6 ch, 2485 kbps/1509kbps, 16-bit, 48 kHz
Language : English
Default : No
Forced : No

Audio #3
ID : 4
Format : AC-3
Format/Info : Audio Coding 3
Commercial name : Dolby Digital
Codec ID : A_AC3
Duration : 1 h 50 min
Bit rate mode : Constant
Bit rate : 640 kb/s
Channel(s) : 6 channels
Channel layout : L R C LFE Ls Rs
Sampling rate : 48.0 kHz
Frame rate : 31.250 FPS (1536 SPF)
Compression mode : Lossy
Stream size : 508 MiB (2%)
Title : AC-3, 6 ch, 640 Kbps, 16-bit, 48 kHz
Language : English
Service kind : Complete Main
Default : No
Forced : No

Text
ID : 5
Format : UTF-8
Codec ID : S_TEXT/UTF8
Codec ID/Info : UTF-8 Plain Text
Title : SRT
Language : English
Default : Yes
Forced : No

Menu
00:00:00.000 : :I Love Being Here With You
00:07:30.450 : :Let's Fall In Love
00:17:09.028 : :Where Or When
00:22:09.495 : :Too Marvellous For Words
00:26:50.843 : :I've Grown Accustomed To His Face
00:32:02.854 : :Walk On By
00:37:54.939 : :Frim Fram Sauce
00:45:08.839 : :Cheek To Cheek
00:51:52.876 : :You're My Thrill
00:59:07.444 : :Let's Face The Music And Dance
01:05:14.277 : :Every Time We Say Goodbye
01:11:08.731 : :So Nice
01:15:09.372 : :Quiet Nights
01:20:41.103 : :Este Seu Olhar
01:24:07.075 : :Boy From Ipanema
01:29:35.203 : :I Don't Know Enough About You
01:39:07.575 : : 'S Wonderful
01:44:09.577 : :Exactly Like You
01:49:22.000 : :Credits

 

资源下载
下载价格15 金币
VIP免费
所有资源都在百度网盘,如有链接失效、解压错误等、请联系管理微信:lgychcom
原文链接:https://www.lgych.com/44700.html,转载请注明出处。
1

评论219

请先
  1. 感謝分享jfg
    fjzone 2023-01-06 0
  2. 感谢分享vpn
    2023-01-15 0
  3. 很棒的资源。谢谢32c
    2023-01-15 0
  4. 很棒的资源。谢谢s51
    2023-01-16 0
  5. 好资源感谢分享6or
    2023-01-16 0
  6. 非常棒的资源k21
    2023-01-16 0
  7. 很棒的资源。谢谢7qy
    2023-01-16 0
  8. 谢谢楼主无私奉献3uc
    2023-01-16 0
  9. 很棒的资源。谢谢q8e
    2023-01-16 0
  10. 不错r17
    2023-01-17 0
  11. 感谢分享!!
    老肥铁锤已购买 2023-08-23 0
  12. 自弹自唱
    ywmwx 2024-01-05 0
  13. 很棒的资源 感謝分享
    languang11 2024-01-23 0
  14. 很棒的资源3q7
    2周前 0
  15. 好资源qbg
    2周前 0
  16. 非常感谢z5i
    2周前 0
  17. 支持发展越来越好zfy
    1周前 0
  18. 谢谢mc2
    1周前 0
  19. 感谢分享w90
    1周前 0
1 9 10 11
泰勒.斯威夫特 城市恋人 2020年巴黎演唱会 Taylor Swift: City of Lover Concert 2020 1080p 《Remux MKV 9.27G》
泰勒.斯威夫特 城市恋人 2020年巴黎演唱会 Taylor Swift: City of Lover Concert 2020 1080p 《Remux MKV 9.27G》
5分钟前 有人购买 去瞅瞅看
本站资源均可通过签到或者评论免费获取,被一些朋友批量注册账号玩坏了;关闭自由注册,后面需要注册账号的朋友,请自助购买邀请码注册
显示验证码
没有账号?注册  忘记密码?