陈奕迅 - 网上慈善演唱会 2020 Live is so much better with Music Eason Chan Charity Concert 2020《WEB-DL MP4 5.27G》

[视频信息]
视频编码: AVC1 - Native D3D9 DXVA Decoder(VLD) - Intel(R) UHD Graphics 770
输入格式: AVC1(24 bits)
输入尺寸: 1920 × 1080(1.78:1)
输出格式: dxva
输出尺寸: 1920 × 1080(1.78:1)
帧率: 30
BitRate: 未知

[音频信息]
音频编码: AAC(0xaac0) - 内置 FFmpeg 解码器(aac)
采样率: 48000 -> 48000 Hz
位率: 16 -> 16 位
声道数: 2 -> 2 声道
Bitrate: 317 kbps

2020年7月11日,陈奕迅在香港举办《Live is so much better with Music Eason Chan Charity Concert》慈善音乐会,日出、日落两个时段的演出

a.m.日出歌单
曲序
歌名
作词
作曲
编曲
01
《与你常在》
陈咏谦
Charles Arthur Huntley、Mark James Fortin
the duo band
02
《天使的礼物》
林夕
陈辉阳
陈辉阳、金培达
03
《黄金时代》
林夕
柳重言·
柳重言
04
《太阳照常升起》
林夕
黄仲贤
江志仁、Yin Wong阿贤
05
《相信你的人》
姚若龙
陈小霞
陈辉阳、伦伟杰
p.m.日落歌单
曲序
歌名
作词
作曲
编曲
01
《幸灾乐祸》
黄伟文
陶喆
陶喆
02
《你给我听好》
林夕
林俊杰
吴庆隆
03
《防不胜防》
黄伟文
张继聪
刘志远
04
《夕阳无限好》
林夕
Eric Kwok(郭伟亮)
Eric Kwok
05
《沙龙》
黄伟文
陈奕迅
C.Y.Kong(江志仁)、唐奕聪、陈匡荣
06
《后台》
黄伟文
Adam
Davy Chan、C.Y.Kong
07
《我们万岁》
陈咏谦
翁玮盈
the duo band

General
Complete name : Y:\Live is so much better with Music Eason Chan Charity Concert 網上慈善音樂會 - Sunrise & Sunset.mp4
Format : MPEG-4
Format profile : Base Media / Version 2
Codec ID : mp42 (mp42/mp41)
File size : 5.27 GiB
Duration : 1 h 20 min
Overall bit rate mode : Variable
Overall bit rate : 9 390 kb/s
Encoded date : UTC 2020-11-11 00:44:41
Tagged date : UTC 2020-11-11 01:18:21
TIM : 00:00:00:00
TSC : 30
TSZ : 1

Video
ID : 1
Format : AVC
Format/Info : Advanced Video Codec
Format profile : High@L4.2
Format settings : CABAC / 4 Ref Frames
Format settings, CABAC : Yes
Format settings, Reference fra : 4 frames
Format settings, GOP : M=3, N=30
Codec ID : avc1
Codec ID/Info : Advanced Video Coding
Duration : 1 h 20 min
Bit rate : 9 068 kb/s
Width : 1 920 pixels
Height : 1 080 pixels
Display aspect ratio : 16:9
Frame rate mode : Constant
Frame rate : 30.000 FPS
Color space : YUV
Chroma subsampling : 4:2:0
Bit depth : 8 bits
Scan type : Progressive
Bits/(Pixel*Frame) : 0.146
Stream size : 5.09 GiB (97%)
Language : English
Encoded date : UTC 2020-11-11 00:44:41
Tagged date : UTC 2020-11-11 00:44:41
Color range : Limited
Color primaries : BT.709
Transfer characteristics : BT.709
Matrix coefficients : BT.709
Codec configuration box : avcC

Audio
ID : 2
Format : AAC LC
Format/Info : Advanced Audio Codec Low Complexity
Codec ID : mp4a-40-2
Duration : 1 h 20 min
Source duration : 1 h 20 min
Bit rate mode : Variable
Bit rate : 317 kb/s
Maximum bit rate : 419 kb/s
Channel(s) : 2 channels
Channel layout : L R
Sampling rate : 48.0 kHz
Frame rate : 46.875 FPS (1024 SPF)
Compression mode : Lossy
Stream size : 183 MiB (3%)
Source stream size : 183 MiB (3%)
Language : English
Encoded date : UTC 2020-11-11 00:44:41
Tagged date : UTC 2020-11-11 00:44:41

资源下载此资源仅限注册用户下载,请先
所有资源都在百度网盘,如有链接失效、解压错误等、请联系管理微信:aimuvv
资源下载
下载价格免费
所有资源都在百度网盘,如有链接失效、解压错误等、请联系管理微信:aimuvv

原文链接:https://www.lgych.com/47148.html,转载请注明出处。

7

评论389

请先

  1. 感谢分享
    zyzyzy 6天前 0
  2. 很好的东西
    1185665481@qq.com 6天前 0
  3. 谢谢分享
    alxh131234 6天前 0
  4. 謝謝分享謝謝分享謝謝分享謝謝
    叽里咕噜 6天前 0
  5. 感谢楼主!!
    zengzhi 6天前 0
  6. 谢谢分享 谢谢分享
    wiimario 2天前 0
  7. 謝謝分享 :smile:
    blucon 2天前 0
  8. 感谢
    nihaowa 2天前 0
  9. 很好的资源,多谢分享
    nihaowa 18小时前 0
1 18 19 20
华语蓝光合集 252部11T资源终极收藏!支持硬盘拷贝:https://www.lgych.com/cnbd/
显示验证码
没有账号? 注册  忘记密码?